Metallica – Master Of Puppets (1st press) (Japanese Edition)




Artist: Metallica
Year: 1986
Genre: Metal
Notes: Discogs
Add. Notes: Japanese Edition
Cover incl.: Yes
Encoder: FLAC
Bitrate: ~900 kBit/s (44.1 kHz/16 Bit/s)
Log & Cue incl.: Yes
Size: 392,4 MB
Password: “slam” (without ” “)


All Downloads/Hosters are compatible

Download 1
KatFile.com
Turbobit.net
FileFactory.com
Rapidgator.net
Download 2
KatFile.com
Turbobit.net
FileFactory.com
Rapidgator.net

Tracklist:

1 - Battery - 5:10
2 - Master Of Puppets - 8:38
3 - The Thing That Should Not Be - 6:32
4 - Welcome Home (Sanitarium) - 6:28
5 - Disposable Heroes - 8:14
6 - Leper Messiah - 5:38
7 - Orion (Instrumental) - 8:12
8 - Damage, Inc. - 5:08

EAC-Log, CUE-Sheed & NFO:

Click to open spoiler
Exact Audio Copy V0.99 prebeta 4 from 23. January 2008

EAC extraction logfile from 3. June 2011, 9:14

Metallica / Master Of Puppets (32DP 448)

Used drive : PLEXTOR DVDR PX-760A Adapter: 0 ID: 0

Read mode : Secure
Utilize accurate stream : Yes
Defeat audio cache : Yes
Make use of C2 pointers : No

Read offset correction : 30
Overread into Lead-In and Lead-Out : No
Fill up missing offset samples with silence : Yes
Delete leading and trailing silent blocks : No
Null samples used in CRC calculations : Yes
Used interface : Installed external ASPI interface

Used output format : Internal WAV Routines
Sample format : 44.100 Hz; 16 Bit; Stereo

TOC of the extracted CD

Track | Start | Length | Start sector | End sector
———————————————————
1 | 0:00.00 | 5:12.55 | 0 | 23454
2 | 5:12.55 | 8:34.60 | 23455 | 62064
3 | 13:47.40 | 6:36.22 | 62065 | 91786
4 | 20:23.62 | 6:27.18 | 91787 | 120829
5 | 26:51.05 | 8:16.45 | 120830 | 158074
6 | 35:07.50 | 5:40.12 | 158075 | 183586
7 | 40:47.62 | 8:27.13 | 183587 | 221624
8 | 49:15.00 | 5:31.62 | 221625 | 246511

Range status and errors

Selected range

Filename D:\bki71\Metallica\Studio Albums\1986 – Master Of Puppets\Metallica – Master Of Puppets (32DP 448).wav

Peak level 100.0 %
Range quality 100.0 %
Test CRC 60B0AD22
Copy CRC 60B0AD22
Copy OK

No errors occurred

AccurateRip summary

Track 1 accurately ripped (confidence 6) [2160363A]
Track 2 accurately ripped (confidence 6) [718F18A5]
Track 3 accurately ripped (confidence 6) [B367009C]
Track 4 accurately ripped (confidence 6) [AA265511]
Track 5 accurately ripped (confidence 6) [5DA924BE]
Track 6 accurately ripped (confidence 6) [C90D108B]
Track 7 accurately ripped (confidence 6) [82111AAC]
Track 8 accurately ripped (confidence 6) [3932E2D0]

All tracks accurately ripped

End of status report

REM GENRE “Thrash Metal”
REM DATE 1986
REM DISCID 680CD608
REM COMMENT “ExactAudioCopy v0.99pb4”
PERFORMER “Metallica”
TITLE “Master Of Puppets (32DP 448)”
FILE “Metallica – Master Of Puppets (32DP 448).flac” WAVE
TRACK 01 AUDIO
TITLE “Battery”
PERFORMER “Metallica”
INDEX 01 00:00:00
TRACK 02 AUDIO
TITLE “Master Of Puppets”
PERFORMER “Metallica”
INDEX 01 05:12:55
TRACK 03 AUDIO
TITLE “The Thing That Should Not Be”
PERFORMER “Metallica”
INDEX 00 13:46:40
INDEX 01 13:47:40
TRACK 04 AUDIO
TITLE “Welcome Home (Sanitarium)”
PERFORMER “Metallica”
INDEX 00 20:22:20
INDEX 01 20:23:62
TRACK 05 AUDIO
TITLE “Disposable Heroes”
PERFORMER “Metallica”
INDEX 01 26:51:05
TRACK 06 AUDIO
TITLE “Leper Messiah”
PERFORMER “Metallica”
INDEX 01 35:07:50
TRACK 07 AUDIO
TITLE “Orion”
PERFORMER “Metallica”
INDEX 01 40:47:62
TRACK 08 AUDIO
TITLE “Damage, Inc.”
PERFORMER “Metallica”
INDEX 00 49:14:12
INDEX 01 49:15:00


Leave a Reply

Your email address will not be published. Required fields are marked *

This site uses Akismet to reduce spam. Learn how your comment data is processed.