Metallica – Load (Limited Japanese Edition)




Artist: Metallica
Year: 1996/2010
Genre: Metal
Notes: Discogs
Add. Notes: Limited Japanese Edition
Encoder: FLAC
Bitrate: ~1000 kBit/s (44.1 kHz/16 Bit/s)
Bin/Cue incl.: Yes
Size: 587,04 MB
Password: “slam” (without ” “)


http://www.share-online.biz/dl/YWOUDVRP19A
http://www.share-online.biz/dl/EW6UDVRPDS

https://rapidgator.net/file/39b8629e034333a5a95e934bcbef736c
https://rapidgator.net/file/e907b3f62fa44388a3d44c5e41ffd185

https://uploadbyte.com/27s7vkchroqq
https://uploadbyte.com/ijluez28o0cj

https://uploadever.com/841vwncfqwen
https://uploadever.com/qw2scrrskasl

https://justupload.io/aisk9t86lpo5
https://justupload.io/zmbi75xyqkar

Tracklist:

1 - Ain't My Bitch - 5:04
2 - 2 X 4 - 5:28
3 - The House Jack Built - 6:38
4 - Until It Sleeps - 4:29
5 - King Nothing - 5:28
6 - Hero Of The Day - 4:21
7 - Bleeding Me - 8:18
8 - Cure - 4:54
9 - Poor Twisted Me - 4:00
10 - Wasting My Hate - 3:57
11 - Mama Said - 5:19
12 - Thorn Within - 5:51
13 - Ronnie - 5:17
14 - The Outlaw Torn - 9:48

EAC-Log, CUE-Sheed & NFO:

Click to open spoiler
Exact Audio Copy V0.99 prebeta 5 from 4. May 2009

EAC extraction logfile from 9. October 2013, 16:11

Metallica / Load (SHM-CD, UICY-94667)

Used drive : PLEXTOR DVDR PX-760A Adapter: 0 ID: 0

Read mode : Secure
Utilize accurate stream : Yes
Defeat audio cache : Yes
Make use of C2 pointers : No

Read offset correction : 30
Overread into Lead-In and Lead-Out : No
Fill up missing offset samples with silence : Yes
Delete leading and trailing silent blocks : No
Null samples used in CRC calculations : Yes
Used interface : Native Win32 interface for Win NT & 2000

Used output format : User Defined Encoder
Selected bitrate : 1024 kBit/s
Quality : High
Add ID3 tag : No
Command line compressor : C:\Program Files (x86)\Exact Audio Copy\Flac\flac.exe
Additional command line options : -8 -V %s

TOC of the extracted CD

Track | Start | Length | Start sector | End sector
———————————————————
1 | 0:00.00 | 5:04.30 | 0 | 22829
2 | 5:04.30 | 5:28.15 | 22830 | 47444
3 | 10:32.45 | 6:38.65 | 47445 | 77359
4 | 17:11.35 | 4:29.50 | 77360 | 97584
5 | 21:41.10 | 5:28.03 | 97585 | 122187
6 | 27:09.13 | 4:21.67 | 122188 | 141829
7 | 31:31.05 | 8:17.70 | 141830 | 179174
8 | 39:49.00 | 4:54.23 | 179175 | 201247
9 | 44:43.23 | 4:00.00 | 201248 | 219247
10 | 48:43.23 | 3:57.17 | 219248 | 237039
11 | 52:40.40 | 5:19.53 | 237040 | 261017
12 | 58:00.18 | 5:51.50 | 261018 | 287392
13 | 63:51.68 | 5:17.10 | 287393 | 311177
14 | 69:09.03 | 9:48.50 | 311178 | 355327

Range status and errors

Selected range

Filename D:\bki71\Metallica\Metallica – Load (SHM-CD, UICY-94667).wav

Peak level 100.0 %
Range quality 100.0 %
Test CRC AB0BC377
Copy CRC AB0BC377
Copy OK

No errors occurred

AccurateRip summary

Track 1 accurately ripped (confidence 7) [4F59A549]
Track 2 accurately ripped (confidence 7) [B84A4DDC]
Track 3 accurately ripped (confidence 7) [C603D66B]
Track 4 accurately ripped (confidence 7) [B6B6A8F4]
Track 5 accurately ripped (confidence 7) [3B2F1BF5]
Track 6 accurately ripped (confidence 7) [7058569A]
Track 7 accurately ripped (confidence 7) [231764A9]
Track 8 accurately ripped (confidence 6) [E404BD8C]
Track 9 accurately ripped (confidence 7) [536F735E]
Track 10 accurately ripped (confidence 7) [D4EA7E2C]
Track 11 accurately ripped (confidence 7) [63B27EFE]
Track 12 accurately ripped (confidence 6) [656DCBD8]
Track 13 accurately ripped (confidence 7) [D4B8B651]
Track 14 accurately ripped (confidence 6) [AC51DDF3]

All tracks accurately ripped

End of status report

REM GENRE “Thrash Metal”
REM DATE 1996
REM DISCID B512810E
REM COMMENT “ExactAudioCopy v0.99pb5”
PERFORMER “Metallica”
TITLE “Load (SHM-CD, UICY-94667)”
FILE “Metallica – Load (SHM-CD, UICY-94667).flac” WAVE
TRACK 01 AUDIO
TITLE “Ain’t My Bitch”
PERFORMER “Metallica”
INDEX 01 00:00:00
TRACK 02 AUDIO
TITLE “2 x 4”
PERFORMER “Metallica”
INDEX 01 05:04:30
TRACK 03 AUDIO
TITLE “The House Jack Built”
PERFORMER “Metallica”
INDEX 01 10:32:45
TRACK 04 AUDIO
TITLE “Until It Sleeps”
PERFORMER “Metallica”
INDEX 01 17:11:35
TRACK 05 AUDIO
TITLE “King Nothing”
PERFORMER “Metallica”
INDEX 01 21:41:10
TRACK 06 AUDIO
TITLE “Hero Of The Day”
PERFORMER “Metallica”
INDEX 01 27:09:13
TRACK 07 AUDIO
TITLE “Bleeding Me”
PERFORMER “Metallica”
INDEX 01 31:31:05
TRACK 08 AUDIO
TITLE “Cure”
PERFORMER “Metallica”
INDEX 01 39:49:00
TRACK 09 AUDIO
TITLE “Poor Twisted Me”
PERFORMER “Metallica”
INDEX 01 44:43:23
TRACK 10 AUDIO
TITLE “Wasting My Hate”
PERFORMER “Metallica”
INDEX 01 48:43:23
TRACK 11 AUDIO
TITLE “Mama Said”
PERFORMER “Metallica”
INDEX 01 52:40:40
TRACK 12 AUDIO
TITLE “Thorn Within”
PERFORMER “Metallica”
INDEX 01 58:00:18
TRACK 13 AUDIO
TITLE “Ronnie”
PERFORMER “Metallica”
INDEX 01 63:51:68
TRACK 14 AUDIO
TITLE “The Outlaw Torn”
PERFORMER “Metallica”
INDEX 01 69:09:03

Leave a Reply

Your email address will not be published. Required fields are marked *

This site uses Akismet to reduce spam. Learn how your comment data is processed.