Metallica – Live Shit: Binge & Purge




Artist: Metallica
Year: 1993
Genre: Metal
Notes: Discogs
Add. Notes:
Cover incl.: Yes
Encoder: FLAC
Bitrate: ~1000 kBit/s (44.1 kHz/16 Bit/s)
Log & Cue incl.: Yes
Size: 1293,26 MB
Password: “slam” (without ” “)


All Downloads/Hosters are compatible

Download 1
Turbobit.net
Rapidgator.net
KatFile.com
UploadRar.com
Download 2
Turbobit.net
Rapidgator.net
KatFile.com
UploadRar.com

Tracklist:

CD1-1 - Enter Sandman - 7:27
CD1-2 - Creeping Death - 7:28
CD1-3 - Harvester Of Sorrow - 7:18
CD1-4 - Welcome Home (Sanitarium) - 6:39
CD1-5 - Sad But True - 6:07
CD1-6 - Of Wolf And Man - 6:52
CD1-7 - The Unforgiven - 6:53
CD1-8 - Justice Medley - 9:38
CD1-9 - Solos (Bass / Guitar) - 18:49

CD2-1 - Through The Never - 3:47
CD2-2 - For Whom The Bell Tolls - 5:48
CD2-3 - Fade To Black - 7:12
CD2-4 - Master Of Puppets - 4:35
CD2-5 - Seek & Destroy - 18:08
CD2-6 - Whiplash - 5:34

CD3-1 - Nothing Else Matters - 6:21
CD3-2 - Wherever I May Roam - 6:32
CD3-3 - Am I Evil? - 5:41
CD3-4 - Last Caress - 1:24
CD3-5 - One - 10:27
CD3-6 - Battery - 10:05
CD3-7 - The Four Horsemen - 6:06
CD3-8 - Motorbreath - 3:14
CD3-9 - Stone Cold Crazy - 5:31

EAC-Log, CUE-Sheed & NFO:

Click to open spoiler
Exact Audio Copy V0.99 prebeta 5 from 4. May 2009

EAC extraction logfile from 28. August 2011, 13:37

Metallica / Live Shit: Binge & Purge (Disc 1)

Used drive : PIONEER DVD-RW DVR-215 Adapter: 5 ID: 0

Read mode : Secure
Utilize accurate stream : Yes
Defeat audio cache : Yes
Make use of C2 pointers : No

Read offset correction : 48
Overread into Lead-In and Lead-Out : No
Fill up missing offset samples with silence : Yes
Delete leading and trailing silent blocks : No
Null samples used in CRC calculations : Yes
Used interface : Native Win32 interface for Win NT & 2000

Used output format : User Defined Encoder
Selected bitrate : 1024 kBit/s
Quality : High
Add ID3 tag : No
Command line compressor : C:\Program Files (x86)\Exact Audio Copy\Flac\flac.exe
Additional command line options : -8 -V %s

TOC of the extracted CD

Track | Start | Length | Start sector | End sector
———————————————————
1 | 0:00.32 | 7:27.58 | 32 | 33614
2 | 7:28.15 | 7:28.17 | 33615 | 67231
3 | 14:56.32 | 7:18.38 | 67232 | 100119
4 | 22:14.70 | 6:39.32 | 100120 | 130076
5 | 28:54.27 | 6:07.08 | 130077 | 157609
6 | 35:01.35 | 6:22.22 | 157610 | 186281
7 | 41:23.57 | 6:48.00 | 186282 | 216881
8 | 48:11.57 | 9:38.28 | 216882 | 260259
9 | 57:50.10 | 18:48.60 | 260260 | 344919

Range status and errors

Selected range

Filename D:\bki71\Metallica\Metallica – Live Shit Binge & Purge (Disc 1).wav

Peak level 100.0 %
Range quality 100.0 %
Test CRC 02E4056A
Copy CRC 02E4056A
Copy OK

No errors occurred

AccurateRip summary

Track 1 accurately ripped (confidence 53) [501DFA37]
Track 2 accurately ripped (confidence 53) [9544089A]
Track 3 accurately ripped (confidence 52) [AEB10731]
Track 4 accurately ripped (confidence 52) [153B69F6]
Track 5 accurately ripped (confidence 53) [5A3883C6]
Track 6 accurately ripped (confidence 51) [61B130DD]
Track 7 accurately ripped (confidence 53) [82510391]
Track 8 accurately ripped (confidence 51) [5FF22B5B]
Track 9 accurately ripped (confidence 48) [EC48FFB5]

All tracks accurately ripped

End of status report

REM GENRE “Thrash Metal”
REM DATE 1993
REM DISCID 8111F609
REM COMMENT “ExactAudioCopy v0.99pb5”
PERFORMER “Metallica”
TITLE “Live Shit: Binge & Purge (Disc 1)”
FILE “Metallica – Live Shit Binge & Purge (Disc 1).flac” WAVE
TRACK 01 AUDIO
TITLE “Enter Sandman”
PERFORMER “Metallica”
INDEX 00 00:00:00
INDEX 01 00:00:32
TRACK 02 AUDIO
TITLE “Creeping Death”
PERFORMER “Metallica”
INDEX 01 07:28:15
TRACK 03 AUDIO
TITLE “Harvester Of Sorrow”
PERFORMER “Metallica”
INDEX 01 14:56:32
TRACK 04 AUDIO
TITLE “Welcome Home (Sanitarium)”
PERFORMER “Metallica”
INDEX 01 22:14:70
TRACK 05 AUDIO
TITLE “Sad But True”
PERFORMER “Metallica”
INDEX 01 28:54:27
TRACK 06 AUDIO
TITLE “Of Wolf And Man”
PERFORMER “Metallica”
INDEX 01 35:01:35
TRACK 07 AUDIO
TITLE “The Unforgiven”
PERFORMER “Metallica”
INDEX 01 41:23:57
TRACK 08 AUDIO
TITLE “Justice Medley”
PERFORMER “Metallica”
INDEX 01 48:11:57
TRACK 09 AUDIO
TITLE “Solos (Bass/Guitar)”
PERFORMER “Metallica”
INDEX 01 57:50:10

REM GENRE “Thrash Metal”
REM DATE 1993
REM DISCID 430A9106
REM COMMENT “ExactAudioCopy v0.99pb5”
PERFORMER “Metallica”
TITLE “Live Shit: Binge & Purge (Disc 2)”
FILE “Metallica – Live Shit Binge & Purge (Disc 2).flac” WAVE
TRACK 01 AUDIO
TITLE “Through The Never”
PERFORMER “Metallica”
INDEX 00 00:00:00
INDEX 01 00:00:32
TRACK 02 AUDIO
TITLE “For Whom The Bell Tolls”
PERFORMER “Metallica”
INDEX 01 03:47:27
TRACK 03 AUDIO
TITLE “Fade To Black”
PERFORMER “Metallica”
INDEX 01 09:35:52
TRACK 04 AUDIO
TITLE “Master Of Puppets”
PERFORMER “Metallica”
INDEX 01 16:48:02
TRACK 05 AUDIO
TITLE “Seek & Destroy”
PERFORMER “Metallica”
INDEX 01 21:23:27
TRACK 06 AUDIO
TITLE “Whiplash”
PERFORMER “Metallica”
INDEX 01 39:31:52

Exact Audio Copy V0.99 prebeta 5 from 4. May 2009

EAC extraction logfile from 28. August 2011, 13:53

Metallica / Live Shit: Binge & Purge (Disc 2)

Used drive : PIONEER DVD-RW DVR-215 Adapter: 5 ID: 0

Read mode : Secure
Utilize accurate stream : Yes
Defeat audio cache : Yes
Make use of C2 pointers : No

Read offset correction : 48
Overread into Lead-In and Lead-Out : No
Fill up missing offset samples with silence : Yes
Delete leading and trailing silent blocks : No
Null samples used in CRC calculations : Yes
Used interface : Native Win32 interface for Win NT & 2000

Used output format : User Defined Encoder
Selected bitrate : 1024 kBit/s
Quality : High
Add ID3 tag : No
Command line compressor : C:\Program Files (x86)\Exact Audio Copy\Flac\flac.exe
Additional command line options : -8 -V %s

TOC of the extracted CD

Track | Start | Length | Start sector | End sector
———————————————————
1 | 0:00.32 | 3:46.70 | 32 | 17051
2 | 3:47.27 | 5:48.25 | 17052 | 43176
3 | 9:35.52 | 7:12.25 | 43177 | 75601
4 | 16:48.02 | 4:35.25 | 75602 | 96251
5 | 21:23.27 | 18:08.25 | 96252 | 177876
6 | 39:31.52 | 5:33.50 | 177877 | 202901

Range status and errors

Selected range

Filename D:\bki71\Metallica\Metallica – Live Shit Binge & Purge (Disc 2).wav

Peak level 100.0 %
Range quality 99.9 %
Test CRC 4188D7C0
Copy CRC 4188D7C0
Copy OK

No errors occurred

AccurateRip summary

Track 1 accurately ripped (confidence 15) [8B9A61BA]
Track 2 accurately ripped (confidence 15) [D4AF1B8C]
Track 3 accurately ripped (confidence 15) [07B8DFA4]
Track 4 accurately ripped (confidence 15) [32213B14]
Track 5 accurately ripped (confidence 15) [349B5931]
Track 6 accurately ripped (confidence 15) [4C3B253A]

All tracks accurately ripped

End of status report

REM GENRE “Thrash Metal”
REM DATE 1993
REM DISCID 770CFF09
REM COMMENT “ExactAudioCopy v0.99pb5”
PERFORMER “Metallica”
TITLE “Live Shit: Binge & Purge (Disc 3)”
FILE “Metallica – Live Shit Binge & Purge (Disc 3).flac” WAVE
TRACK 01 AUDIO
TITLE “Nothing Else Matters”
PERFORMER “Metallica”
INDEX 00 00:00:00
INDEX 01 00:00:32
TRACK 02 AUDIO
TITLE “Wherever I May Roam”
PERFORMER “Metallica”
INDEX 01 06:22:07
TRACK 03 AUDIO
TITLE “Am I Evil?”
PERFORMER “Metallica”
INDEX 01 12:54:50
TRACK 04 AUDIO
TITLE “Last Caress”
PERFORMER “Metallica”
INDEX 01 18:36:27
TRACK 05 AUDIO
TITLE “One”
PERFORMER “Metallica”
INDEX 01 20:01:10
TRACK 06 AUDIO
TITLE “Battery”
PERFORMER “Metallica”
INDEX 01 30:28:10
TRACK 07 AUDIO
TITLE “The Four Horsemen”
PERFORMER “Metallica”
INDEX 00 40:31:65
INDEX 01 40:33:00
TRACK 08 AUDIO
TITLE “Motorbreath”
PERFORMER “Metallica”
INDEX 01 46:40:55
TRACK 09 AUDIO
TITLE “Stone Cold Crazy”
PERFORMER “Metallica”
INDEX 01 49:55:12

Exact Audio Copy V0.99 prebeta 5 from 4. May 2009

EAC extraction logfile from 28. August 2011, 14:13

Metallica / Live Shit: Binge & Purge (Disc 3)

Used drive : PIONEER DVD-RW DVR-215 Adapter: 5 ID: 0

Read mode : Secure
Utilize accurate stream : Yes
Defeat audio cache : Yes
Make use of C2 pointers : No

Read offset correction : 48
Overread into Lead-In and Lead-Out : No
Fill up missing offset samples with silence : Yes
Delete leading and trailing silent blocks : No
Null samples used in CRC calculations : Yes
Used interface : Native Win32 interface for Win NT & 2000

Used output format : User Defined Encoder
Selected bitrate : 1024 kBit/s
Quality : High
Add ID3 tag : No
Command line compressor : C:\Program Files (x86)\Exact Audio Copy\Flac\flac.exe
Additional command line options : -8 -V %s

TOC of the extracted CD

Track | Start | Length | Start sector | End sector
———————————————————
1 | 0:00.32 | 6:21.50 | 32 | 28656
2 | 6:22.07 | 6:32.43 | 28657 | 58099
3 | 12:54.50 | 5:41.52 | 58100 | 83726
4 | 18:36.27 | 1:24.58 | 83727 | 90084
5 | 20:01.10 | 10:27.00 | 90085 | 137109
6 | 30:28.10 | 10:04.65 | 137110 | 182474
7 | 40:33.00 | 6:07.55 | 182475 | 210054
8 | 46:40.55 | 3:14.32 | 210055 | 224636
9 | 49:55.12 | 5:32.15 | 224637 | 249551

Range status and errors

Selected range

Filename D:\bki71\Metallica\Metallica – Live Shit Binge & Purge (Disc 3).wav

Peak level 100.0 %
Range quality 100.0 %
Test CRC EC6703CF
Copy CRC EC6703CF
Copy OK

No errors occurred

AccurateRip summary

Track 1 accurately ripped (confidence 62) [98EE41E6]
Track 2 accurately ripped (confidence 60) [70337D35]
Track 3 accurately ripped (confidence 62) [62051CF2]
Track 4 accurately ripped (confidence 61) [F93C34BB]
Track 5 accurately ripped (confidence 61) [AB656726]
Track 6 accurately ripped (confidence 60) [2F85F910]
Track 7 accurately ripped (confidence 59) [98FE0BB8]
Track 8 accurately ripped (confidence 61) [EAC839B6]
Track 9 accurately ripped (confidence 49) [58CFC60A]

All tracks accurately ripped

End of status report


Leave a Reply

Your email address will not be published. Required fields are marked *

This site uses Akismet to reduce spam. Learn how your comment data is processed.