Metallica – Live Shit: Binge & Purge (Limited Japanese Edition)




Artist: Metallica
Year: 1993/2003
Genre: Metal
Notes: Discogs
Add. Notes: Limited Japanese Edition
Encoder: FLAC
Bitrate: ~1000 kBit/s (44.1 kHz/16 Bit/s)
Bin/Cue incl.: Yes
Size: 1342,23 MB
Password: “slam” (without ” “)


http://www.share-online.biz/dl/N6CSDVRPVS
http://www.share-online.biz/dl/CIKSDVRP0I5
http://www.share-online.biz/dl/COVTDVRPYBU

https://rapidgator.net/file/2966b1a2ea5e54f6c9f26679a186c190
https://rapidgator.net/file/489da384a03eeda79fee8c4043d5de8c
https://rapidgator.net/file/6722edf2bc55658da76282a0ac3759a8

https://uploadbyte.com/9lwf9wu012s7
https://uploadbyte.com/mzh2lt1olsro
https://uploadbyte.com/ve9d9bl8rgdu

https://uploadever.com/8jmeos2gwqh0
https://uploadever.com/o27y6aqe5aul
https://uploadever.com/x9zhubt4jqr2

https://justupload.io/8i2ej22yaq69
https://justupload.io/t9085pkkt55t
https://justupload.io/x33oq27zmhmo

Tracklist:

CD1.1 - Enter Sandman - 7:28
CD1.2 - Creeping Death - 7:28
CD1.3 - Harvester Of Sorrow - 7:18
CD1.4 - Welcome Home (Sanitarium) - 6:40
CD1.5 - Sad But True - 6:07
CD1.6 - Of Wolf And Man - 6:22
CD1.7 - The Unforgiven - 6:48
CD1.8 - Justice Medley - 9:39
CD1.8a - Eye Of The Beholder - 
CD1.8b - Blackened - 
CD1.8c - The Frayed Ends Of Sanity - 
CD1.8d - ...And Justice For All - 
CD1.9 - Solos (Bass / Guitar) - 18:48
CD2.1 - Through The Never - 3:47
CD2.2 - For Whom The Bell Tolls - 5:48
CD2.3 - Fade To Black - 7:13
CD2.4 - Master Of Puppets - 4:35
CD2.5 - Seek & Destroy - 18:08
CD2.6 - Whiplash - 5:34
CD3.1 - Nothing Else Matters - 6:22
CD3.2 - Wherever I May Roam - 6:32
CD3.3 - Am I Evil? - 5:42
CD3.4 - Last Caress - 1:25
CD3.5 - One - 10:27
CD3.6 - Battery - 10:05
CD3.7 - The Four Horsemen - 6:07
CD3.8 - Motorbreath - 3:15
CD3.9 - Stone Cold Crazy - 5:32

EAC-Log, CUE-Sheed & NFO:

Click to open spoiler
Exact Audio Copy V0.99 prebeta 5 from 4. May 2009

EAC extraction logfile from 28. August 2011, 14:57

Metallica / Live Shit: Binge & Purge (Disc 1, SICP 482)

Used drive : PIONEER DVD-RW DVR-215 Adapter: 5 ID: 0

Read mode : Secure
Utilize accurate stream : Yes
Defeat audio cache : Yes
Make use of C2 pointers : No

Read offset correction : 48
Overread into Lead-In and Lead-Out : No
Fill up missing offset samples with silence : Yes
Delete leading and trailing silent blocks : No
Null samples used in CRC calculations : Yes
Used interface : Native Win32 interface for Win NT & 2000

Used output format : User Defined Encoder
Selected bitrate : 1024 kBit/s
Quality : High
Add ID3 tag : No
Command line compressor : C:\Program Files (x86)\Exact Audio Copy\Flac\flac.exe
Additional command line options : -8 -V %s

TOC of the extracted CD

Track | Start | Length | Start sector | End sector
———————————————————
1 | 0:00.00 | 7:27.72 | 0 | 33596
2 | 7:27.72 | 7:28.18 | 33597 | 67214
3 | 14:56.15 | 7:19.15 | 67215 | 100154
4 | 22:15.30 | 6:38.55 | 100155 | 130059
5 | 28:54.10 | 6:07.07 | 130060 | 157591
6 | 35:01.17 | 6:23.00 | 157592 | 186316
7 | 41:24.17 | 6:48.00 | 186317 | 216916
8 | 48:12.17 | 9:37.63 | 216917 | 260254
9 | 57:50.05 | 18:50.47 | 260255 | 345051

Range status and errors

Selected range

Filename D:\bki71\Metallica\Metallica – Live Shit Binge & Purge (Disc 1, SICP 482).wav

Peak level 100.0 %
Range quality 100.0 %
Test CRC B13EE404
Copy CRC B13EE404
Copy OK

No errors occurred

AccurateRip summary

Track 1 cannot be verified as accurate (confidence 2) [42508AA4], AccurateRip returned [1A92F9CE]
Track 2 cannot be verified as accurate (confidence 2) [444D19CE], AccurateRip returned [63A33E1A]
Track 3 cannot be verified as accurate (confidence 2) [31A81A6D], AccurateRip returned [286270E3]
Track 4 cannot be verified as accurate (confidence 2) [854AAF37], AccurateRip returned [16ED5678]
Track 5 cannot be verified as accurate (confidence 2) [EDE138E5], AccurateRip returned [E93B9496]
Track 6 cannot be verified as accurate (confidence 2) [0A377B67], AccurateRip returned [66E55921]
Track 7 cannot be verified as accurate (confidence 2) [CD305044], AccurateRip returned [975989B8]
Track 8 cannot be verified as accurate (confidence 2) [D7C4D071], AccurateRip returned [7E53283C]
Track 9 cannot be verified as accurate (confidence 2) [244C5F8E], AccurateRip returned [779D1E67]

No tracks could be verified as accurate
You may have a different pressing from the one(s) in the database

End of status report

Exact Audio Copy V0.99 prebeta 5 from 4. May 2009

EAC extraction logfile from 28. August 2011, 15:15

Metallica / Live Shit: Binge & Purge (Disc 2, SICP 483)

Used drive : PIONEER DVD-RW DVR-215 Adapter: 5 ID: 0

Read mode : Secure
Utilize accurate stream : Yes
Defeat audio cache : Yes
Make use of C2 pointers : No

Read offset correction : 48
Overread into Lead-In and Lead-Out : No
Fill up missing offset samples with silence : Yes
Delete leading and trailing silent blocks : No
Null samples used in CRC calculations : Yes
Used interface : Native Win32 interface for Win NT & 2000

Used output format : User Defined Encoder
Selected bitrate : 1024 kBit/s
Quality : High
Add ID3 tag : No
Command line compressor : C:\Program Files (x86)\Exact Audio Copy\Flac\flac.exe
Additional command line options : -8 -V %s

TOC of the extracted CD

Track | Start | Length | Start sector | End sector
———————————————————
1 | 0:00.00 | 3:47.07 | 0 | 17031
2 | 3:47.07 | 5:48.25 | 17032 | 43156
3 | 9:35.32 | 7:12.25 | 43157 | 75581
4 | 16:47.57 | 4:35.25 | 75582 | 96231
5 | 21:23.07 | 18:08.25 | 96232 | 177856
6 | 39:31.32 | 5:35.25 | 177857 | 203006

Range status and errors

Selected range

Filename D:\bki71\Metallica\Metallica – Live Shit Binge & Purge (Disc 2, SICP 483).wav

Peak level 100.0 %
Range quality 100.0 %
Test CRC 65E718D3
Copy CRC 65E718D3
Copy OK

No errors occurred

AccurateRip summary

Track 1 cannot be verified as accurate (confidence 2) [334D2E2E], AccurateRip returned [855ACA5F]
Track 2 cannot be verified as accurate (confidence 2) [94598716], AccurateRip returned [B7776FD7]
Track 3 cannot be verified as accurate (confidence 2) [28E9E250], AccurateRip returned [9CB0DD6A]
Track 4 cannot be verified as accurate (confidence 2) [36858AB6], AccurateRip returned [EA5D1D53]
Track 5 cannot be verified as accurate (confidence 2) [CECEFD84], AccurateRip returned [12F9A963]
Track 6 cannot be verified as accurate (confidence 2) [D8139A25], AccurateRip returned [5491E63C]

No tracks could be verified as accurate
You may have a different pressing from the one(s) in the database

End of status report

Exact Audio Copy V0.99 prebeta 5 from 4. May 2009

EAC extraction logfile from 28. August 2011, 15:36

Metallica / Live Shit: Binge & Purge (Disc 3, SICP 484)

Used drive : PIONEER DVD-RW DVR-215 Adapter: 5 ID: 0

Read mode : Secure
Utilize accurate stream : Yes
Defeat audio cache : Yes
Make use of C2 pointers : No

Read offset correction : 48
Overread into Lead-In and Lead-Out : No
Fill up missing offset samples with silence : Yes
Delete leading and trailing silent blocks : No
Null samples used in CRC calculations : Yes
Used interface : Native Win32 interface for Win NT & 2000

Used output format : User Defined Encoder
Selected bitrate : 1024 kBit/s
Quality : High
Add ID3 tag : No
Command line compressor : C:\Program Files (x86)\Exact Audio Copy\Flac\flac.exe
Additional command line options : -8 -V %s

TOC of the extracted CD

Track | Start | Length | Start sector | End sector
———————————————————
1 | 0:00.00 | 6:21.62 | 0 | 28636
2 | 6:21.62 | 6:32.43 | 28637 | 58079
3 | 12:54.30 | 5:41.52 | 58080 | 83706
4 | 18:36.07 | 1:25.10 | 83707 | 90091
5 | 20:01.17 | 10:26.48 | 90092 | 137089
6 | 30:27.65 | 10:05.47 | 137090 | 182511
7 | 40:33.37 | 6:06.72 | 182512 | 210033
8 | 46:40.34 | 3:14.33 | 210034 | 224616
9 | 49:54.67 | 5:33.05 | 224617 | 249596

Range status and errors

Selected range

Filename D:\bki71\Metallica\Metallica – Live Shit Binge & Purge (Disc 3, SICP 484).wav

Peak level 100.0 %
Range quality 99.9 %
Test CRC CC2184A4
Copy CRC CC2184A4
Copy OK

No errors occurred

AccurateRip summary

Track 1 not present in database
Track 2 not present in database
Track 3 not present in database
Track 4 not present in database
Track 5 not present in database
Track 6 not present in database
Track 7 not present in database
Track 8 not present in database
Track 9 not present in database

None of the tracks are present in the AccurateRip database

End of status report

REM GENRE “Thrash Metal”
REM DATE 1993
REM DISCID 8C11F809
REM COMMENT “ExactAudioCopy v0.99pb5”
PERFORMER “Metallica”
TITLE “Live Shit: Binge & Purge (Disc 1, SICP 482)”
FILE “Metallica – Live Shit Binge & Purge (Disc 1, SICP 482).flac” WAVE
TRACK 01 AUDIO
TITLE “Enter Sandman”
PERFORMER “Metallica”
INDEX 01 00:00:00
TRACK 02 AUDIO
TITLE “Creeping Death”
PERFORMER “Metallica”
INDEX 01 07:27:72
TRACK 03 AUDIO
TITLE “Harvester Of Sorrow”
PERFORMER “Metallica”
INDEX 01 14:56:15
TRACK 04 AUDIO
TITLE “Welcome Home (Sanitarium)”
PERFORMER “Metallica”
INDEX 01 22:15:30
TRACK 05 AUDIO
TITLE “Sad But True”
PERFORMER “Metallica”
INDEX 01 28:54:10
TRACK 06 AUDIO
TITLE “Of Wolf And Man”
PERFORMER “Metallica”
INDEX 01 35:01:17
TRACK 07 AUDIO
TITLE “The Unforgiven”
PERFORMER “Metallica”
INDEX 01 41:24:17
TRACK 08 AUDIO
TITLE “Justice Medley”
PERFORMER “Metallica”
INDEX 01 48:12:17
TRACK 09 AUDIO
TITLE “Solos (Bass/Guitar)”
PERFORMER “Metallica”
INDEX 01 57:50:05

REM GENRE “Thrash Metal”
REM DATE 1993
REM DISCID 4B0A9206
REM COMMENT “ExactAudioCopy v0.99pb5”
PERFORMER “Metallica”
TITLE “Live Shit: Binge & Purge (Disc 2, SICP 483)”
FILE “Metallica – Live Shit Binge & Purge (Disc 2, SICP 483).flac” WAVE
TRACK 01 AUDIO
TITLE “Through The Never”
PERFORMER “Metallica”
INDEX 01 00:00:00
TRACK 02 AUDIO
TITLE “For Whom The Bell Tolls”
PERFORMER “Metallica”
INDEX 01 03:47:07
TRACK 03 AUDIO
TITLE “Fade To Black”
PERFORMER “Metallica”
INDEX 01 09:35:32
TRACK 04 AUDIO
TITLE “Master Of Puppets”
PERFORMER “Metallica”
INDEX 01 16:47:57
TRACK 05 AUDIO
TITLE “Seek And Destroy”
PERFORMER “Metallica”
INDEX 01 21:23:07
TRACK 06 AUDIO
TITLE “Whiplash”
PERFORMER “Metallica”
INDEX 01 39:31:32

REM GENRE “Thrash Metal”
REM DATE 1993
REM DISCID 7D0CFF09
REM COMMENT “ExactAudioCopy v0.99pb5”
PERFORMER “Metallica”
TITLE “Live Shit: Binge & Purge (Disc 3, SICP 484)”
FILE “Metallica – Live Shit Binge & Purge (Disc 3, SICP 484).flac” WAVE
TRACK 01 AUDIO
TITLE “Nothing Else Matters”
PERFORMER “Metallica”
INDEX 01 00:00:00
TRACK 02 AUDIO
TITLE “Wherever I May Roam”
PERFORMER “Metallica”
INDEX 01 06:21:62
TRACK 03 AUDIO
TITLE “Am I Evil?”
PERFORMER “Metallica”
INDEX 01 12:54:30
TRACK 04 AUDIO
TITLE “Last Caress”
PERFORMER “Metallica”
INDEX 01 18:36:07
TRACK 05 AUDIO
TITLE “One”
PERFORMER “Metallica”
INDEX 01 20:01:17
TRACK 06 AUDIO
TITLE “Battery”
PERFORMER “Metallica”
INDEX 01 30:27:65
TRACK 07 AUDIO
TITLE “The Four Horsemen”
PERFORMER “Metallica”
INDEX 00 40:32:05
INDEX 01 40:33:37
TRACK 08 AUDIO
TITLE “Motorbreath”
PERFORMER “Metallica”
INDEX 01 46:40:34
TRACK 09 AUDIO
TITLE “Stone Cold Crazy”
PERFORMER “Metallica”
INDEX 01 49:54:67

Leave a Reply

Your email address will not be published. Required fields are marked *

This site uses Akismet to reduce spam. Learn how your comment data is processed.