Metallica – Kill ‘Em All (Reissue)




Artist: Metallica
Year: 1983/1985
Genre: Metal
Notes: Discogs
Add. Notes: Reissue
Cover incl.: Yes
Encoder: FLAC
Bitrate: ~900 kBit/s (44.1 kHz/16 Bit/s)
Log & Cue incl.: Yes
Size: 346,3 MB
Password: “slam” (without ” “)


All Downloads/Hosters are compatible

Download 1
KatFile.com
Turbobit.net
FileFactory.com
Rapidgator.net
Download 2
KatFile.com
Turbobit.net
FileFactory.com
Rapidgator.net

Tracklist:

1 - Hit The Lights - 4:17
2 - The Four Horsemen - 7:08
3 - Motorbreath - 3:03
4 - Jump In The Fire - 4:50
5 - (Anesthesia)-Pulling Teeth - 3:27
6 - Whiplash - 4:06
7 - Phantom Lord - 4:52
8 - No Remorse - 6:24
9 - Seek & Destroy - 6:50
10 - Metal Militia - 6:06

EAC-Log, CUE-Sheed & NFO:

Click to open spoiler
Exact Audio Copy V1.0 beta 3 from 29. August 2011

EAC extraction logfile from 9. January 2014, 9:25

Metallica / Kill ‘Em All (USA Megaforce MRI CD 069)

Used drive : PLEXTOR DVDR PX-760A Adapter: 1 ID: 0

Read mode : Secure
Utilize accurate stream : Yes
Defeat audio cache : Yes
Make use of C2 pointers : No

Read offset correction : 30
Overread into Lead-In and Lead-Out : No
Fill up missing offset samples with silence : Yes
Delete leading and trailing silent blocks : No
Null samples used in CRC calculations : Yes
Used interface : Native Win32 interface for Win NT & 2000

Used output format : User Defined Encoder
Selected bitrate : 1024 kBit/s
Quality : High
Add ID3 tag : No
Command line compressor : C:\Program Files (x86)\Exact Audio Copy\Flac\flac.exe
Additional command line options : -V -8 -T “Date=%year%” -T “Genre=%genre%” %source%

TOC of the extracted CD

Track | Start | Length | Start sector | End sector
———————————————————
1 | 0:00.00 | 4:17.43 | 0 | 19317
2 | 4:17.43 | 7:13.05 | 19318 | 51797
3 | 11:30.48 | 3:08.20 | 51798 | 65917
4 | 14:38.68 | 4:41.47 | 65918 | 87039
5 | 19:20.40 | 4:15.08 | 87040 | 106172
6 | 23:35.48 | 4:10.17 | 106173 | 124939
7 | 27:45.65 | 5:01.30 | 124940 | 147544
8 | 32:47.20 | 6:26.55 | 147545 | 176549
9 | 39:14.00 | 6:55.65 | 176550 | 207739
10 | 46:09.65 | 5:10.23 | 207740 | 231012

Range status and errors

Selected range

Filename F:\bki71\Metallica\Metallica – Kill ‘Em All (USA Megaforce MRI CD 069).wav

Peak level 82.0 %
Extraction speed 2.5 X
Range quality 100.0 %
Test CRC 392FE313
Copy CRC 392FE313
Copy OK

No errors occurred

AccurateRip summary

Track 1 accurately ripped (confidence 3) [1C1CA569] (AR v2)
Track 2 accurately ripped (confidence 3) [21C79FFE] (AR v2)
Track 3 accurately ripped (confidence 3) [D7CE8926] (AR v2)
Track 4 accurately ripped (confidence 3) [A533E89C] (AR v2)
Track 5 accurately ripped (confidence 3) [0ADE6230] (AR v2)
Track 6 accurately ripped (confidence 3) [5029C9EF] (AR v2)
Track 7 accurately ripped (confidence 3) [04DCFE25] (AR v2)
Track 8 accurately ripped (confidence 3) [3774227F] (AR v2)
Track 9 accurately ripped (confidence 3) [B80E4455] (AR v2)
Track 10 accurately ripped (confidence 3) [7D993CB0] (AR v2)

All tracks accurately ripped

End of status report

==== Log checksum F1E276AD766D7EF3E7B4FE045D6731CFF6EC3279A8D8553AF04628D501D50B21 ====

REM GENRE “Thrash Metal”
REM DATE 1983
REM DISCID 980C080A
REM COMMENT “ExactAudioCopy v1.0b3”
PERFORMER “Metallica”
TITLE “Kill ‘Em All (USA Megaforce MRI CD 069)”
FILE “Metallica – Kill ‘Em All (USA Megaforce MRI CD 069).flac” WAVE
TRACK 01 AUDIO
TITLE “Hit The Lights”
PERFORMER “Metallica”
INDEX 01 00:00:00
TRACK 02 AUDIO
TITLE “The Four Horsemen”
PERFORMER “Metallica”
INDEX 00 04:16:13
INDEX 01 04:17:43
TRACK 03 AUDIO
TITLE “Motorbreath”
PERFORMER “Metallica”
INDEX 00 11:28:63
INDEX 01 11:30:48
TRACK 04 AUDIO
TITLE “Jump In The Fire”
PERFORMER “Metallica”
INDEX 00 14:36:63
INDEX 01 14:38:68
TRACK 05 AUDIO
TITLE “(Anesthesia) Pulling Teeth”
PERFORMER “Metallica”
INDEX 00 19:18:63
INDEX 01 19:20:40
TRACK 06 AUDIO
TITLE “Whiplash”
PERFORMER “Metallica”
INDEX 01 23:35:48
TRACK 07 AUDIO
TITLE “Phantom Lord”
PERFORMER “Metallica”
INDEX 00 27:43:13
INDEX 01 27:45:65
TRACK 08 AUDIO
TITLE “No Remorse”
PERFORMER “Metallica”
INDEX 00 32:44:00
INDEX 01 32:47:20
TRACK 09 AUDIO
TITLE “Seek And Destroy”
PERFORMER “Metallica”
INDEX 00 39:10:63
INDEX 01 39:14:00
TRACK 10 AUDIO
TITLE “Metal Militia”
PERFORMER “Metallica”
INDEX 00 46:06:13
INDEX 01 46:09:65


Leave a Reply

Your email address will not be published. Required fields are marked *

This site uses Akismet to reduce spam. Learn how your comment data is processed.