Metallica – Kill ‘Em All (Remastered)




Artist: Metallica
Year: 1983/1995
Genre: Metal
Notes: Discogs
Add. Notes: Remastered
Cover incl.: Yes
Encoder: FLAC
Bitrate: ~1000 kBit/s (44.1 kHz/16 Bit/s)
Log & Cue incl.: Yes
Size: 360,2 MB
Password: “slam” (without ” “)


All Downloads/Hosters are compatible

Download 1
KatFile.com
Turbobit.net
FileFactory.com
Rapidgator.net
Download 2
KatFile.com
Turbobit.net
FileFactory.com
Rapidgator.net

Tracklist:

1 - Hit The Lights - 4:17
2 - The Four Horsemen - 7:08
3 - Motorbreath - 3:03
4 - Jump In The Fire - 4:50
5 - (Anesthesia) - Pulling Teeth - 3:27
6 - Whiplash - 4:06
7 - Phantom Lord - 4:52
8 - No Remorse - 6:24
9 - Seek & Destroy - 6:50
10 - Metal Militia - 6:06

EAC-Log, CUE-Sheed & NFO:

Click to open spoiler
Exact Audio Copy V0.99 prebeta 5 from 4. May 2009

EAC extraction logfile from 16. October 2013, 10:03

Metallica / Kill ‘Em All (1995 USA Elektra 960766-2)

Used drive : PIONEER DVD-RW DVR-215 Adapter: 5 ID: 0

Read mode : Secure
Utilize accurate stream : Yes
Defeat audio cache : Yes
Make use of C2 pointers : No

Read offset correction : 48
Overread into Lead-In and Lead-Out : No
Fill up missing offset samples with silence : Yes
Delete leading and trailing silent blocks : No
Null samples used in CRC calculations : Yes
Used interface : Native Win32 interface for Win NT & 2000

Used output format : User Defined Encoder
Selected bitrate : 1024 kBit/s
Quality : High
Add ID3 tag : No
Command line compressor : C:\Program Files (x86)\Exact Audio Copy\Flac\flac.exe
Additional command line options : -8 -V %s

TOC of the extracted CD

Track | Start | Length | Start sector | End sector
———————————————————
1 | 0:00.32 | 4:17.20 | 32 | 19326
2 | 4:17.52 | 7:12.50 | 19327 | 51776
3 | 11:30.27 | 3:08.23 | 51777 | 65899
4 | 14:38.50 | 4:41.42 | 65900 | 87016
5 | 19:20.17 | 4:14.43 | 87017 | 106109
6 | 23:34.60 | 4:10.02 | 106110 | 124861
7 | 27:44.62 | 5:01.50 | 124862 | 147486
8 | 32:46.37 | 6:26.20 | 147487 | 176456
9 | 39:12.57 | 6:55.30 | 176457 | 207611
10 | 46:08.12 | 5:09.58 | 207612 | 230844

Range status and errors

Selected range

Filename D:\bki71\Metallica\Metallica – Kill ‘Em All (1995 USA Elektra 960766-2).wav

Peak level 100.0 %
Range quality 100.0 %
Test CRC E9CB509E
Copy CRC E9CB509E
Copy OK

No errors occurred

AccurateRip summary

Track 1 accurately ripped (confidence 77) [5C45793F]
Track 2 accurately ripped (confidence 77) [DBD41828]
Track 3 accurately ripped (confidence 78) [338007D9]
Track 4 accurately ripped (confidence 77) [70303F4A]
Track 5 accurately ripped (confidence 77) [BDB86C8D]
Track 6 accurately ripped (confidence 77) [CB50E895]
Track 7 accurately ripped (confidence 77) [87DF90E9]
Track 8 accurately ripped (confidence 76) [91B47697]
Track 9 accurately ripped (confidence 79) [2577693F]
Track 10 accurately ripped (confidence 78) [AFBE90EA]

All tracks accurately ripped

End of status report

REM GENRE “Thrash Metal”
REM DATE 1983
REM DISCID 920C050A
REM COMMENT “ExactAudioCopy v0.99pb5”
PERFORMER “Metallica”
TITLE “Kill ‘Em All (1995 USA Elektra 960766-2)”
FILE “Metallica – Kill ‘Em All (1995 USA Elektra 960766-2).flac” WAVE
TRACK 01 AUDIO
TITLE “Hit the Lights”
PERFORMER “Metallica”
INDEX 00 00:00:00
INDEX 01 00:00:32
TRACK 02 AUDIO
TITLE “The Four Horsemen”
PERFORMER “Metallica”
INDEX 00 04:15:25
INDEX 01 04:17:52
TRACK 03 AUDIO
TITLE “Motorbreath”
PERFORMER “Metallica”
INDEX 00 11:27:25
INDEX 01 11:30:27
TRACK 04 AUDIO
TITLE “Jump in the Fire”
PERFORMER “Metallica”
INDEX 00 14:35:05
INDEX 01 14:38:50
TRACK 05 AUDIO
TITLE “(Anesthesia) Pulling Teeth”
PERFORMER “Metallica”
INDEX 00 19:17:37
INDEX 01 19:20:17
TRACK 06 AUDIO
TITLE “Whiplash”
PERFORMER “Metallica”
INDEX 01 23:34:60
TRACK 07 AUDIO
TITLE “Phantom Lord”
PERFORMER “Metallica”
INDEX 00 27:41:70
INDEX 01 27:44:62
TRACK 08 AUDIO
TITLE “No Remorse”
PERFORMER “Metallica”
INDEX 00 32:42:57
INDEX 01 32:46:37
TRACK 09 AUDIO
TITLE “Seek & Destroy”
PERFORMER “Metallica”
INDEX 00 39:09:25
INDEX 01 39:12:57
TRACK 10 AUDIO
TITLE “Metal Militia”
PERFORMER “Metallica”
INDEX 00 46:03:30
INDEX 01 46:08:12


Leave a Reply

Your email address will not be published. Required fields are marked *

This site uses Akismet to reduce spam. Learn how your comment data is processed.