Metallica – Kill ‘Em All (Remastered Japanese Edition)




Artist: Metallica
Year: 1983/2010
Genre: Metal
Notes: Discogs
Add. Notes: Remastered Japanese Edition
Cover incl.: Yes
Encoder: FLAC
Bitrate: ~1000 kBit/s (44.1 kHz/16 Bit/s)
Log & Cue incl.: Yes
Size: 394,8 MB
Password: “slam” (without ” “)


All Downloads/Hosters are compatible

Download 1
KatFile.com
Turbobit.net
FileFactory.com
Rapidgator.net
Download 2
KatFile.com
Turbobit.net
FileFactory.com
Rapidgator.net

Tracklist:

1 - Hit The Lights - 4:17
2 - The Four Horsemen - 7:08
3 - Motorbreath - 3:03
4 - Jump In The Fire - 4:50
5 - (Anesthesia) - Pulling Teeth - 3:27
6 - Whiplash - 4:06
7 - Phantom Lord - 4:52
8 - No Remorse - 6:24
9 - Seek & Destroy - 6:50
10 - Metal Militia - 6:06

EAC-Log, CUE-Sheed & NFO:

Click to open spoiler
Exact Audio Copy V0.99 prebeta 5 from 4. May 2009

EAC extraction logfile from 29. March 2012, 18:51

Metallica / Kill ‘Em All (SHM-CD, UICY-94662)

Used drive : PLEXTOR DVDR PX-760A Adapter: 0 ID: 0

Read mode : Secure
Utilize accurate stream : Yes
Defeat audio cache : Yes
Make use of C2 pointers : No

Read offset correction : 30
Overread into Lead-In and Lead-Out : No
Fill up missing offset samples with silence : Yes
Delete leading and trailing silent blocks : No
Null samples used in CRC calculations : Yes
Used interface : Native Win32 interface for Win NT & 2000

Used output format : User Defined Encoder
Selected bitrate : 1024 kBit/s
Quality : High
Add ID3 tag : No
Command line compressor : C:\Program Files (x86)\Exact Audio Copy\Flac\flac.exe
Additional command line options : -8 -V %s

TOC of the extracted CD

Track | Start | Length | Start sector | End sector
———————————————————
1 | 0:00.00 | 4:17.67 | 0 | 19341
2 | 4:17.67 | 7:12.50 | 19342 | 51791
3 | 11:30.42 | 3:08.10 | 51792 | 65901
4 | 14:38.52 | 4:41.43 | 65902 | 87019
5 | 19:20.20 | 4:14.55 | 87020 | 106124
6 | 23:35.00 | 4:08.67 | 106125 | 124791
7 | 27:43.67 | 5:02.25 | 124792 | 147466
8 | 32:46.17 | 6:26.13 | 147467 | 176429
9 | 39:12.30 | 6:55.27 | 176430 | 207581
10 | 46:07.57 | 5:12.43 | 207582 | 231024

Range status and errors

Selected range

Filename E:\bki71\Metallica\Metallica – Kill ‘Em All (SHM-CD, UICY-94662).wav

Peak level 99.8 %
Range quality 100.0 %
Test CRC F9AF7A48
Copy CRC F9AF7A48
Copy OK

No errors occurred

AccurateRip summary

Track 1 accurately ripped (confidence 4) [576310FB]
Track 2 accurately ripped (confidence 4) [4099B6C0]
Track 3 accurately ripped (confidence 4) [13F5470C]
Track 4 accurately ripped (confidence 4) [6C40AA31]
Track 5 accurately ripped (confidence 4) [8131B50A]
Track 6 accurately ripped (confidence 4) [47E145E6]
Track 7 accurately ripped (confidence 4) [028F3BF7]
Track 8 accurately ripped (confidence 4) [B0AE84EF]
Track 9 accurately ripped (confidence 4) [E2C37278]
Track 10 accurately ripped (confidence 4) [69A10796]

All tracks accurately ripped

End of status report

REM GENRE “Thrash Metal”
REM DATE 1983
REM DISCID 9A0C080A
REM COMMENT “ExactAudioCopy v0.99pb5”
PERFORMER “Metallica”
TITLE “Kill ‘Em All (SHM-CD, UICY-94662)”
FILE “Metallica – Kill ‘Em All (SHM-CD, UICY-94662).flac” WAVE
TRACK 01 AUDIO
TITLE “Hit The Lights”
PERFORMER “Metallica”
INDEX 01 00:00:00
TRACK 02 AUDIO
TITLE “The Four Horsemen”
PERFORMER “Metallica”
INDEX 00 04:16:45
INDEX 01 04:17:67
TRACK 03 AUDIO
TITLE “Motorbreath”
PERFORMER “Metallica”
INDEX 00 11:28:50
INDEX 01 11:30:42
TRACK 04 AUDIO
TITLE “Jump In The Fire”
PERFORMER “Metallica”
INDEX 00 14:36:58
INDEX 01 14:38:52
TRACK 05 AUDIO
TITLE “(Anesthesia) Pulling Teeth”
PERFORMER “Metallica”
INDEX 00 19:18:19
INDEX 01 19:20:20
TRACK 06 AUDIO
TITLE “Whiplash”
PERFORMER “Metallica”
INDEX 01 23:35:00
TRACK 07 AUDIO
TITLE “Phantom Lord”
PERFORMER “Metallica”
INDEX 00 27:42:06
INDEX 01 27:43:67
TRACK 08 AUDIO
TITLE “No Remorse”
PERFORMER “Metallica”
INDEX 00 32:43:05
INDEX 01 32:46:17
TRACK 09 AUDIO
TITLE “Seek And Destroy”
PERFORMER “Metallica”
INDEX 00 39:09:43
INDEX 01 39:12:30
TRACK 10 AUDIO
TITLE “Metal Militia”
PERFORMER “Metallica”
INDEX 00 46:03:43
INDEX 01 46:07:57


Leave a Reply

Your email address will not be published. Required fields are marked *

This site uses Akismet to reduce spam. Learn how your comment data is processed.