Metallica – Kill ‘Em All (1st press) (Japanese Edition)




Artist: Metallica
Year: 1983/1988
Genre: Metal
Notes: Discogs
Add. Notes: Japanese Edition
Cover incl.: Yes
Encoder: FLAC
Bitrate: ~1000 kBit/s (44.1 kHz/16 Bit/s)
Log & Cue incl.: Yes
Size: 466,4 MB
Password: “slam” (without ” “)


All Downloads/Hosters are compatible

Download 1
KatFile.com
Turbobit.net
FileFactory.com
Rapidgator.net
Download 2
KatFile.com
Turbobit.net
FileFactory.com
Rapidgator.net

Tracklist:

1 - Hit The Lights - 4:17
2 - The Four Horsemen - 7:13
3 - Motorbreath - 3:08
4 - Jump In The Fire - 4:42
5 - (Anesthesia) - Pulling Teeth - 4:15
6 - Whiplash - 4:11
7 - Phantom Lord - 5:02
8 - No Remorse - 6:27
9 - Seek & Destroy - 6:55
10 - Metal Militia - 5:11
11 - Am I Evil? - 7:52
12 - Blitzkrieg - 3:35

EAC-Log, CUE-Sheed & NFO:

Click to open spoiler
Exact Audio Copy V0.99 prebeta 4 from 23. January 2008

EAC extraction logfile from 11. September 2010, 1:32

Metallica / Kill ‘Em All (25DP 5339)

Used drive : PLEXTOR DVDR PX-760A Adapter: 0 ID: 0

Read mode : Secure
Utilize accurate stream : Yes
Defeat audio cache : Yes
Make use of C2 pointers : No

Read offset correction : 30
Overread into Lead-In and Lead-Out : No
Fill up missing offset samples with silence : Yes
Delete leading and trailing silent blocks : No
Null samples used in CRC calculations : Yes
Used interface : Installed external ASPI interface

Used output format : Internal WAV Routines
Sample format : 44.100 Hz; 16 Bit; Stereo

TOC of the extracted CD

Track | Start | Length | Start sector | End sector
———————————————————
1 | 0:00.00 | 4:17.02 | 0 | 19276
2 | 4:17.02 | 7:13.08 | 19277 | 51759
3 | 11:30.10 | 3:08.25 | 51760 | 65884
4 | 14:38.35 | 4:41.45 | 65885 | 87004
5 | 19:20.05 | 4:14.57 | 87005 | 106111
6 | 23:34.62 | 4:10.53 | 106112 | 124914
7 | 27:45.40 | 5:02.02 | 124915 | 147566
8 | 32:47.42 | 6:26.50 | 147567 | 176566
9 | 39:14.17 | 6:55.08 | 176567 | 207699
10 | 46:09.25 | 5:11.00 | 207700 | 231024
11 | 51:20.25 | 7:51.65 | 231025 | 266414
12 | 59:12.15 | 3:35.40 | 266415 | 282579

Range status and errors

Selected range

Filename D:\bki71\Metallica – Kill ‘Em All (25DP 5339).wav

Peak level 100.0 %
Range quality 100.0 %
Test CRC 29B29526
Copy CRC 29B29526
Copy OK

No errors occurred

AccurateRip summary

Track 1 accurately ripped (confidence 4) [6F5B6F08]
Track 2 accurately ripped (confidence 4) [49F803F3]
Track 3 accurately ripped (confidence 4) [215AB6A2]
Track 4 accurately ripped (confidence 4) [0785DC58]
Track 5 accurately ripped (confidence 4) [08EDAAF4]
Track 6 accurately ripped (confidence 4) [53FF9C0D]
Track 7 accurately ripped (confidence 3) [07342E36]
Track 8 accurately ripped (confidence 4) [54ABB980]
Track 9 accurately ripped (confidence 4) [57975C5C]
Track 10 accurately ripped (confidence 4) [89946D2A]
Track 11 accurately ripped (confidence 4) [4F5FEBF3]
Track 12 accurately ripped (confidence 4) [C58D1027]

All tracks accurately ripped

End of status report

REM GENRE “Thrash Metal”
REM DATE 1983
REM DISCID B50EB70C
REM COMMENT “ExactAudioCopy v0.99pb4”
PERFORMER “Metallica”
TITLE “Kill ‘Em All (25DP 5339)”
FILE “Metallica – Kill ‘Em All (25DP 5339).flac” WAVE
TRACK 01 AUDIO
TITLE “Hit The Lights”
PERFORMER “Metallica”
INDEX 01 00:00:00
TRACK 02 AUDIO
TITLE “The Four Horsemen”
PERFORMER “Metallica”
INDEX 01 04:17:02
TRACK 03 AUDIO
TITLE “Motorbreath”
PERFORMER “Metallica”
INDEX 00 11:28:22
INDEX 01 11:30:10
TRACK 04 AUDIO
TITLE “Jump In The Fire”
PERFORMER “Metallica”
INDEX 00 14:35:72
INDEX 01 14:38:35
TRACK 05 AUDIO
TITLE “(Anesthesia) Pulling Teeth”
PERFORMER “Metallica”
INDEX 00 19:18:65
INDEX 01 19:20:05
TRACK 06 AUDIO
TITLE “Whiplash”
PERFORMER “Metallica”
INDEX 01 23:34:62
TRACK 07 AUDIO
TITLE “Phantom Lord”
PERFORMER “Metallica”
INDEX 00 27:43:40
INDEX 01 27:45:40
TRACK 08 AUDIO
TITLE “No Remorse”
PERFORMER “Metallica”
INDEX 00 32:44:67
INDEX 01 32:47:42
TRACK 09 AUDIO
TITLE “Seek & Destroy”
PERFORMER “Metallica”
INDEX 00 39:11:67
INDEX 01 39:14:17
TRACK 10 AUDIO
TITLE “Metal Militia”
PERFORMER “Metallica”
INDEX 00 46:06:52
INDEX 01 46:09:25
TRACK 11 AUDIO
TITLE “Am I Evil?”
PERFORMER “Metallica”
INDEX 01 51:20:25
TRACK 12 AUDIO
TITLE “Blitzkrieg”
PERFORMER “Metallica”
INDEX 00 59:10:62
INDEX 01 59:12:15


Leave a Reply

Your email address will not be published. Required fields are marked *

This site uses Akismet to reduce spam. Learn how your comment data is processed.