Metallica – Greatest Hits Part II




Artist: Metallica
Year: 2008
Genre: Metal
Notes: Discogs
Encoder: FLAC
Bitrate: ~1000 kBit/s (VBR)
Size: 1073,93 MB
Hoster: Share-Online
Password: “slam” (without ” “)


Tracklist:

1-1 That Was Just Your Life 7:10
1-2 I Disappear 4:24
1-3 Fuel 4:30
1-4 The Day That Never Comes 7:58
1-5 Until It Sleeps 4:30
1-6 Whiskey In The Jar 5:04
1-7 The Unforgiven II 6:38
1-8 Die, Die My Darling 2:31
1-9 Broken, Beat And Scarred 6:27
1-10 Turn The Page 6:07
1-11 Ain't My Bitch 5:06
1-12 Frantic 5:51
1-13 Mama Said 5:22
1-14 No Leaf Clover 5:43
2-1 The End Of The Line 7:54
2-2 It's Electric 3:36
2-3 The Memory Remains 4:39
2-4 The Unforgiven III 7:49
2-5 Hero Of The Day 4:22
2-6 Sabbra Cadabra 6:22
2-7 Better Than You 3:59
2-8 King Nothing 5:27
2-9 Cyanide 6:42
2-10 Loverman 7:55
2-11 Some Kind Of Monster 4:19
2-12 1 x 4 5:30
2-13 Devil's Dance 5:19
2-14 Human 4:20

Click to open spoiler
PERFORMER “Metallica”
TITLE “Metallica – Greatest Hits Part 2 CD1”
FILE “Metallica – That Was Just Your Life.flac” WAVE
TRACK 01 AUDIO
TITLE “That Was Just Your Life”
INDEX 01 00:00:00
TRACK 02 AUDIO
TITLE “I Disappear”
INDEX 01 07:10:24
TRACK 03 AUDIO
TITLE “Fuel”
INDEX 01 11:34:46
TRACK 04 AUDIO
TITLE “The Day That Never Comes ”
INDEX 01 16:04:60
TRACK 05 AUDIO
TITLE “Until It Sleeps ”
INDEX 01 24:03:05
TRACK 06 AUDIO
TITLE “Whiskey in the Jar ”
INDEX 01 28:33:00
TRACK 07 AUDIO
TITLE “The Unforgiven II ”
INDEX 01 33:37:30
TRACK 08 AUDIO
TITLE “Die, Die My Darling ”
INDEX 01 40:15:24
TRACK 09 AUDIO
TITLE “Broken, Beat and Scarred ”
INDEX 01 42:46:32
TRACK 10 AUDIO
TITLE “Turn the Page ”
INDEX 01 49:13:67
TRACK 11 AUDIO
TITLE “Ain’t My Bitch”
INDEX 01 55:20:55
TRACK 12 AUDIO
TITLE “Frantic ”
INDEX 01 60:27:09
TRACK 13 AUDIO
TITLE “Mama Said ”
INDEX 01 66:17:60
TRACK 14 AUDIO
TITLE “No Leaf Clover ”
INDEX 01 71:39:35

REM GENRE Heavy Metal
REM DATE 2008
REM COMMENT ddl-music.org
PERFORMER “Metallica”
TITLE “Greatest Hits Part-2 CD2”
FILE “Metallica – The End Of The Line.flac” WAVE
TRACK 01 AUDIO
TITLE “The End Of The Line ”
INDEX 01 00:00:00
TRACK 02 AUDIO
TITLE “It’s Electric”
INDEX 01 07:54:27
TRACK 03 AUDIO
TITLE “The Memory Remains”
INDEX 01 11:30:23
TRACK 04 AUDIO
TITLE “The Unforgiven III”
INDEX 01 16:08:74
TRACK 05 AUDIO
TITLE “Hero of the Day”
INDEX 01 23:57:43
TRACK 06 AUDIO
TITLE “Sabbra Cadabra”
INDEX 01 28:19:45
TRACK 07 AUDIO
TITLE “Better Than You”
INDEX 01 34:41:61
TRACK 08 AUDIO
TITLE “King Nothing”
INDEX 01 38:40:36
TRACK 09 AUDIO
TITLE “Cyanide”
INDEX 01 44:07:20
TRACK 10 AUDIO
TITLE “Lover Man”
INDEX 01 50:48:61
TRACK 11 AUDIO
TITLE “Some Kind of Monster”
INDEX 01 58:43:48
TRACK 12 AUDIO
TITLE “2 X 4”
INDEX 01 63:02:48
TRACK 13 AUDIO
TITLE “Devil’s Dance”
INDEX 01 68:32:63
TRACK 14 AUDIO
TITLE “Human”
INDEX 01 73:51:63

Leave a Reply

Your email address will not be published. Required fields are marked *

This site uses Akismet to reduce spam. Learn how your comment data is processed.