Metallica – Garage Inc. (Limited Remastered Japanese Edition)




Artist: Metallica
Year: 1998/2010
Genre: Metal
Notes: Discogs
Add. Notes: Limited Remastered Japanese Edition
Encoder: FLAC
Bitrate: ~1000 kBit/s (44.1 kHz/16 Bit/s)
Bin/Cue incl.: Yes
Size: 1075,7 MB
Password: “slam” (without ” “)


http://www.share-online.biz/dl/AE8XDVRPDO
http://www.share-online.biz/dl/7M7YDVRPNX8
http://www.share-online.biz/dl/ZJKXDVRPEAJL

https://rapidgator.net/file/147b36f390223d69a980542103e466f6
https://rapidgator.net/file/46e5f9b0137e44caefee5d28af57f93f
https://rapidgator.net/file/5ecb280590c9927289db4a0b82fce08e

https://uploadbyte.com/09gg5d9j8uwm
https://uploadbyte.com/shnbs0u8zaj9
https://uploadbyte.com/zz9wl4cs3hp6

https://uploadever.com/6qv06vyrtt22
https://uploadever.com/epuewg1tcizb
https://uploadever.com/g17ezztrtvdu

https://justupload.io/2i6budykryub
https://justupload.io/8vqcblbp9iat
https://justupload.io/nn59awwgsybo

Tracklist:

1-01 - Free Speech For The Dumb - 2:35
1-02 - It's Electric - 3:33
1-03 - Sabra Cadabra - 6:20
1-04 - Turn The Page - 6:06
1-05 - Die, Die My Darling - 2:29
1-06 - Loverman - 7:52
1-07 - Mercyful Fate - 11:11
1-08 - Astronomy - 6:37
1-09 - Whiskey In The Jar - 5:04
1-10 - Tuesday's Gone - 9:05
1-11 - The More I See - 4:48
2-01 - Helpless - 6:38
2-02 - The Small Hours - 6:43
2-03 - The Wait - 4:55
2-04 - Crash Course In Brain Surgery - 3:10
2-05 - Last Caress / Green Hell - 3:29
2-06 - Am I Evil? - 7:50
2-07 - Blitzkrieg - 3:36
2-08 - Breadfan - 5:41
2-09 - The Prince - 4:25
2-10 - Stone Cold Crazy - 2:17
2-11 - So What - 3:08
2-12 - Killing Time - 3:03
2-13 - Overkill - 4:04
2-14 - Damage Case - 3:40
2-15 - Stone Dead Forever - 4:51
2-16 - Too Late Too Late - 3:12

EAC-Log, CUE-Sheed & NFO:

Click to open spoiler
Exact Audio Copy V0.99 prebeta 5 from 4. May 2009

EAC extraction logfile from 10. October 2013, 19:57

Metallica / Garage Inc. (Disc 1) [SHM-CD, UICY-94670]

Used drive : PLEXTOR DVDR PX-760A Adapter: 0 ID: 0

Read mode : Secure
Utilize accurate stream : Yes
Defeat audio cache : Yes
Make use of C2 pointers : No

Read offset correction : 30
Overread into Lead-In and Lead-Out : No
Fill up missing offset samples with silence : Yes
Delete leading and trailing silent blocks : No
Null samples used in CRC calculations : Yes
Used interface : Native Win32 interface for Win NT & 2000

Used output format : User Defined Encoder
Selected bitrate : 1024 kBit/s
Quality : High
Add ID3 tag : No
Command line compressor : C:\Program Files (x86)\Exact Audio Copy\Flac\flac.exe
Additional command line options : -8 -V %s

TOC of the extracted CD

Track | Start | Length | Start sector | End sector
———————————————————
1 | 0:00.00 | 2:35.28 | 0 | 11652
2 | 2:35.28 | 3:33.70 | 11653 | 27697
3 | 6:09.23 | 6:20.16 | 27698 | 56213
4 | 12:29.39 | 6:06.31 | 56214 | 83694
5 | 18:35.70 | 2:29.25 | 83695 | 94894
6 | 21:05.20 | 7:52.53 | 94895 | 130347
7 | 28:57.73 | 11:11.42 | 130348 | 180714
8 | 40:09.40 | 6:37.40 | 180715 | 210529
9 | 46:47.05 | 5:04.68 | 210530 | 233397
10 | 51:51.73 | 9:05.55 | 233398 | 274327
11 | 60:57.53 | 4:48.40 | 274328 | 295967

Range status and errors

Selected range

Filename D:\bki71\Metallica\Metallica – Garage Inc. (Disc 1) [SHM-CD, UICY-94670].wav

Peak level 100.0 %
Range quality 99.9 %
Test CRC 8C1D6B79
Copy CRC 8C1D6B79
Copy OK

No errors occurred

AccurateRip summary

Track 1 accurately ripped (confidence 6) [2123671B]
Track 2 accurately ripped (confidence 7) [7D7FC299]
Track 3 accurately ripped (confidence 7) [F898490B]
Track 4 accurately ripped (confidence 7) [463666F2]
Track 5 accurately ripped (confidence 7) [75B6DF78]
Track 6 accurately ripped (confidence 7) [335B0734]
Track 7 accurately ripped (confidence 7) [F7446352]
Track 8 accurately ripped (confidence 7) [5C85DC69]
Track 9 accurately ripped (confidence 7) [E9774466]
Track 10 accurately ripped (confidence 7) [1ABB1F0C]
Track 11 accurately ripped (confidence 6) [6858119E]

All tracks accurately ripped

End of status report

Exact Audio Copy V0.99 prebeta 5 from 4. May 2009

EAC extraction logfile from 10. October 2013, 21:02

Metallica / Garage Inc. (Disc 2) [SHM-CD, UICY-94671]

Used drive : PLEXTOR DVDR PX-760A Adapter: 0 ID: 0

Read mode : Secure
Utilize accurate stream : Yes
Defeat audio cache : Yes
Make use of C2 pointers : No

Read offset correction : 30
Overread into Lead-In and Lead-Out : No
Fill up missing offset samples with silence : Yes
Delete leading and trailing silent blocks : No
Null samples used in CRC calculations : Yes
Used interface : Native Win32 interface for Win NT & 2000

Used output format : User Defined Encoder
Selected bitrate : 1024 kBit/s
Quality : High
Add ID3 tag : No
Command line compressor : C:\Program Files (x86)\Exact Audio Copy\Flac\flac.exe
Additional command line options : -8 -V %s

TOC of the extracted CD

Track | Start | Length | Start sector | End sector
———————————————————
1 | 0:00.00 | 6:38.25 | 0 | 29874
2 | 6:38.25 | 6:43.18 | 29875 | 60117
3 | 13:21.43 | 4:55.20 | 60118 | 82262
4 | 18:16.63 | 3:10.25 | 82263 | 96537
5 | 21:27.13 | 3:29.60 | 96538 | 112272
6 | 24:56.73 | 7:50.10 | 112273 | 147532
7 | 32:47.08 | 3:36.58 | 147533 | 163790
8 | 36:23.66 | 5:41.22 | 163791 | 189387
9 | 42:05.13 | 4:25.50 | 189388 | 209312
10 | 46:30.63 | 2:17.47 | 209313 | 219634
11 | 48:48.35 | 3:08.73 | 219635 | 233807
12 | 51:57.33 | 3:03.55 | 233808 | 247587
13 | 55:01.13 | 4:04.68 | 247588 | 265955
14 | 59:06.06 | 3:40.23 | 265956 | 282478
15 | 62:46.29 | 4:52.01 | 282479 | 304379
16 | 67:38.30 | 3:11.74 | 304380 | 318778

Range status and errors

Selected range

Filename D:\bki71\Metallica\Metallica – Garage Inc. (Disc 2) [SHM-CD, UICY-94671].wav

Peak level 100.0 %
Range quality 100.0 %
Test CRC AF8271F5
Copy CRC AF8271F5
Copy OK

No errors occurred

AccurateRip summary

Track 1 accurately ripped (confidence 7) [6CC2D7E6]
Track 2 accurately ripped (confidence 6) [DFBC7E1F]
Track 3 accurately ripped (confidence 6) [4448FFD8]
Track 4 accurately ripped (confidence 6) [12B83F4E]
Track 5 accurately ripped (confidence 7) [309DEAC1]
Track 6 accurately ripped (confidence 7) [5A3EB692]
Track 7 accurately ripped (confidence 7) [2B3012CA]
Track 8 accurately ripped (confidence 7) [6F1734B3]
Track 9 accurately ripped (confidence 6) [4217B240]
Track 10 accurately ripped (confidence 6) [309251D5]
Track 11 accurately ripped (confidence 7) [7659C0A7]
Track 12 accurately ripped (confidence 7) [56272D27]
Track 13 accurately ripped (confidence 7) [B89552C6]
Track 14 accurately ripped (confidence 6) [09E9AD35]
Track 15 accurately ripped (confidence 6) [5EA4CA01]
Track 16 accurately ripped (confidence 6) [D016F000]

All tracks accurately ripped

End of status report

REM GENRE “Thrash Metal”
REM DATE 1998
REM DISCID 8F0F6A0B
REM COMMENT “ExactAudioCopy v0.99pb5”
PERFORMER “Metallica”
TITLE “Garage Inc. (Disc 1) [SHM-CD, UICY-94670]”
FILE “Metallica – Garage Inc. (Disc 1) [SHM-CD, UICY-94670].flac” WAVE
TRACK 01 AUDIO
TITLE “Free Speech For The Dumb”
PERFORMER “Metallica”
INDEX 01 00:00:00
TRACK 02 AUDIO
TITLE “It’s Electric”
PERFORMER “Metallica”
INDEX 00 02:34:24
INDEX 01 02:35:28
TRACK 03 AUDIO
TITLE “Sabbra Cadabra”
PERFORMER “Metallica”
INDEX 00 06:08:24
INDEX 01 06:09:23
TRACK 04 AUDIO
TITLE “Turn The Page”
PERFORMER “Metallica”
INDEX 00 12:28:19
INDEX 01 12:29:39
TRACK 05 AUDIO
TITLE “Die, Die My Darling”
PERFORMER “Metallica”
INDEX 00 18:35:41
INDEX 01 18:35:70
TRACK 06 AUDIO
TITLE “Loverman”
PERFORMER “Metallica”
INDEX 00 21:02:26
INDEX 01 21:05:20
TRACK 07 AUDIO
TITLE “Mercyful Fate”
PERFORMER “Metallica”
INDEX 00 28:56:71
INDEX 01 28:57:73
TRACK 08 AUDIO
TITLE “Astronomy”
PERFORMER “Metallica”
INDEX 00 40:07:57
INDEX 01 40:09:40
TRACK 09 AUDIO
TITLE “Whiskey In The Jar”
PERFORMER “Metallica”
INDEX 00 46:46:39
INDEX 01 46:47:05
TRACK 10 AUDIO
TITLE “Tuesday’s Gone”
PERFORMER “Metallica”
INDEX 00 51:51:14
INDEX 01 51:51:73
TRACK 11 AUDIO
TITLE “The More I See”
PERFORMER “Metallica”
INDEX 00 60:55:41
INDEX 01 60:57:53

REM GENRE “Thrash Metal”
REM DATE 1998
REM DISCID F5109A10
REM COMMENT “ExactAudioCopy v0.99pb5”
PERFORMER “Metallica”
TITLE “Garage Inc. (Disc 2) [SHM-CD, UICY-94671]”
FILE “Metallica – Garage Inc. (Disc 2) [SHM-CD, UICY-94671].flac” WAVE
TRACK 01 AUDIO
TITLE “Helpless”
PERFORMER “Metallica”
INDEX 01 00:00:00
TRACK 02 AUDIO
TITLE “The Small Hours”
PERFORMER “Metallica”
INDEX 00 06:36:41
INDEX 01 06:38:25
TRACK 03 AUDIO
TITLE “The Wait”
PERFORMER “Metallica”
INDEX 00 13:18:64
INDEX 01 13:21:43
TRACK 04 AUDIO
TITLE “Crash Course In Brain Surgery”
PERFORMER “Metallica”
INDEX 00 18:13:66
INDEX 01 18:16:63
TRACK 05 AUDIO
TITLE “Last Caress / Green Hell”
PERFORMER “Metallica”
INDEX 00 21:25:11
INDEX 01 21:27:13
TRACK 06 AUDIO
TITLE “Am I Evil?”
PERFORMER “Metallica”
INDEX 00 24:55:69
INDEX 01 24:56:73
TRACK 07 AUDIO
TITLE “Blitzkrieg”
PERFORMER “Metallica”
INDEX 00 32:46:56
INDEX 01 32:47:08
TRACK 08 AUDIO
TITLE “Breadfan”
PERFORMER “Metallica”
INDEX 00 36:23:34
INDEX 01 36:23:66
TRACK 09 AUDIO
TITLE “The Prince”
PERFORMER “Metallica”
INDEX 01 42:05:13
TRACK 10 AUDIO
TITLE “Stone Cold Crazy”
PERFORMER “Metallica”
INDEX 00 46:29:51
INDEX 01 46:30:63
TRACK 11 AUDIO
TITLE “So What”
PERFORMER “Metallica”
INDEX 00 48:47:39
INDEX 01 48:48:35
TRACK 12 AUDIO
TITLE “Killing Time”
PERFORMER “Metallica”
INDEX 00 51:56:51
INDEX 01 51:57:33
TRACK 13 AUDIO
TITLE “Overkill”
PERFORMER “Metallica”
INDEX 00 55:00:36
INDEX 01 55:01:13
TRACK 14 AUDIO
TITLE “Damage Case”
PERFORMER “Metallica”
INDEX 01 59:06:06
TRACK 15 AUDIO
TITLE “Stone Dead Forever”
PERFORMER “Metallica”
INDEX 01 62:46:29
TRACK 16 AUDIO
TITLE “Too Late Too Late”
PERFORMER “Metallica”
INDEX 01 67:38:30

Leave a Reply

Your email address will not be published. Required fields are marked *

This site uses Akismet to reduce spam. Learn how your comment data is processed.