Metallica – Garage Inc.




Artist: Metallica
Year: 1998
Genre: Metal
Notes: Discogs
Add. Notes:
Cover incl.: Yes
Encoder: FLAC
Bitrate: ~1000 kBit/s (44.1 kHz/16 Bit/s)
Log & Cue incl.: Yes
Size: 1101,54 MB
Password: “slam” (without ” “)


All Downloads/Hosters are compatible

Download 1
Turbobit.net
Rapidgator.net
KatFile.com
UsersDrive.com
CloudShare.to
Download 2
Turbobit.net
Rapidgator.net
KatFile.com
UsersDrive.com
CloudShare.to
Download 3
Turbobit.net
Rapidgator.net
KatFile.com
UsersDrive.com
CloudShare.to

Tracklist:

New Recordings '98
1-1 - Free Speech For The Dumb - 2:35
1-2 - It's Electric - 3:33
1-3 - Sabra Cadabra - 6:20
1-4 - Turn The Page - 6:06
1-5 - Die, Die My Darling - 2:29
1-6 - Loverman - 7:52
1-7 - Mercyful Fate (Featuring Satan's Fall) - 11:11
1-8 - Astronomy - 6:37
1-9 - Whiskey In The Jar - 5:04
1-10 - Tuesday's Gone - 9:05
1-11 - The More I See - 4:48
Garage Days Re-Revisited '87
2-1 - Helpless - 6:38
2-2 - The Small Hours - 6:43
2-3 - The Wait - 4:55
2-4 - Crash Course In Brain Surgery - 3:10
2-5 - Last Caress / Green Hell - 3:29
Garage Days Revisited '84
2-6 - Am I Evil? - 7:50
2-7 - Blitzkrieg - 3:36
B-Sides & One-Offs '88-'91
2-8 - Breadfan - 5:41
2-9 - The Prince - 4:25
2-10 - Stone Cold Crazy - 2:17
2-11 - So What - 3:08
2-12 - Killing Time - 3:03
Motorheadache '95
2-13 - Overkill - 4:04
2-14 - Damage Case - 3:40
2-15 - Stone Dead Forever - 4:51
2-16 - Too Late Too Late - 3:12

EAC-Log, CUE-Sheed & NFO:

Click to open spoiler
Exact Audio Copy V0.99 prebeta 5 from 4. May 2009

EAC extraction logfile from 24. March 2012, 1:46

Metallica / Garage Inc. (Disc 1) [USA Elektra 62299-2]

Used drive : PIONEER DVD-RW DVR-215 Adapter: 5 ID: 0

Read mode : Secure
Utilize accurate stream : Yes
Defeat audio cache : Yes
Make use of C2 pointers : No

Read offset correction : 48
Overread into Lead-In and Lead-Out : No
Fill up missing offset samples with silence : Yes
Delete leading and trailing silent blocks : No
Null samples used in CRC calculations : Yes
Used interface : Native Win32 interface for Win NT & 2000

Used output format : User Defined Encoder
Selected bitrate : 1024 kBit/s
Quality : High
Add ID3 tag : No
Command line compressor : C:\Program Files (x86)\Exact Audio Copy\Flac\flac.exe
Additional command line options : -8 -V %s

TOC of the extracted CD

Track | Start | Length | Start sector | End sector
———————————————————
1 | 0:00.32 | 2:35.40 | 32 | 11696
2 | 2:35.72 | 3:33.70 | 11697 | 27741
3 | 6:09.67 | 6:20.18 | 27742 | 56259
4 | 12:30.10 | 6:06.30 | 56260 | 83739
5 | 18:36.40 | 2:29.25 | 83740 | 94939
6 | 21:05.65 | 7:52.52 | 94940 | 130391
7 | 28:58.42 | 11:11.43 | 130392 | 180759
8 | 40:10.10 | 6:37.40 | 180760 | 210574
9 | 46:47.50 | 5:04.67 | 210575 | 233441
10 | 51:52.42 | 9:05.55 | 233442 | 274371
11 | 60:58.22 | 4:48.55 | 274372 | 296026

Range status and errors

Selected range

Filename E:\bki71\Metallica\Metallica – Garage Inc. (Disc 1) [USA Elektra 62299-2].wav

Peak level 100.0 %
Range quality 100.0 %
Test CRC F5A68B60
Copy CRC F5A68B60
Copy OK

No errors occurred

AccurateRip summary

Track 1 accurately ripped (confidence 200) [FDC748C2]
Track 2 accurately ripped (confidence 200) [03B7D5D6]
Track 3 accurately ripped (confidence 200) [962B763E]
Track 4 accurately ripped (confidence 200) [E4A268D1]
Track 5 accurately ripped (confidence 200) [1599FCC4]
Track 6 accurately ripped (confidence 200) [DDD248EA]
Track 7 accurately ripped (confidence 200) [6B1D8190]
Track 8 accurately ripped (confidence 200) [8E6BBDBD]
Track 9 accurately ripped (confidence 200) [365D0A4B]
Track 10 accurately ripped (confidence 200) [116BA400]
Track 11 accurately ripped (confidence 200) [E58B5A04]

All tracks accurately ripped

End of status report

Exact Audio Copy V0.99 prebeta 5 from 4. May 2009

EAC extraction logfile from 24. March 2012, 2:12

Metallica / Garage Inc. (Disc 2) [USA Elektra 62299-2]

Used drive : PIONEER DVD-RW DVR-215 Adapter: 5 ID: 0

Read mode : Secure
Utilize accurate stream : Yes
Defeat audio cache : Yes
Make use of C2 pointers : No

Read offset correction : 48
Overread into Lead-In and Lead-Out : No
Fill up missing offset samples with silence : Yes
Delete leading and trailing silent blocks : No
Null samples used in CRC calculations : Yes
Used interface : Native Win32 interface for Win NT & 2000

Used output format : User Defined Encoder
Selected bitrate : 1024 kBit/s
Quality : High
Add ID3 tag : No
Command line compressor : C:\Program Files (x86)\Exact Audio Copy\Flac\flac.exe
Additional command line options : -8 -V %s

TOC of the extracted CD

Track | Start | Length | Start sector | End sector
———————————————————
1 | 0:00.32 | 6:38.25 | 32 | 29906
2 | 6:38.57 | 6:43.18 | 29907 | 60149
3 | 13:22.00 | 4:55.20 | 60150 | 82294
4 | 18:17.20 | 3:10.25 | 82295 | 96569
5 | 21:27.45 | 3:29.60 | 96570 | 112304
6 | 24:57.30 | 7:50.10 | 112305 | 147564
7 | 32:47.40 | 3:36.60 | 147565 | 163824
8 | 36:24.25 | 5:41.25 | 163825 | 189424
9 | 42:05.50 | 4:25.45 | 189425 | 209344
10 | 46:31.20 | 2:17.47 | 209345 | 219666
11 | 48:48.67 | 3:08.73 | 219667 | 233839
12 | 51:57.65 | 3:03.62 | 233840 | 247626
13 | 55:01.52 | 4:04.60 | 247627 | 265986
14 | 59:06.37 | 3:40.23 | 265987 | 282509
15 | 62:46.60 | 4:51.70 | 282510 | 304404
16 | 67:38.55 | 3:12.15 | 304405 | 318819

Range status and errors

Selected range

Filename E:\bki71\Metallica\Metallica – Garage Inc. (Disc 2) [USA Elektra 62299-2].wav

Peak level 100.0 %
Range quality 100.0 %
Test CRC 4E8F61B5
Copy CRC 4E8F61B5
Copy OK

No errors occurred

AccurateRip summary

Track 1 accurately ripped (confidence 200) [E83CDB4B]
Track 2 accurately ripped (confidence 200) [D50DC214]
Track 3 accurately ripped (confidence 200) [79E6C5AC]
Track 4 accurately ripped (confidence 200) [9274EBD6]
Track 5 accurately ripped (confidence 200) [27CEA7D7]
Track 6 accurately ripped (confidence 200) [1AFC97B2]
Track 7 accurately ripped (confidence 200) [6B76C12E]
Track 8 accurately ripped (confidence 200) [20D70E5B]
Track 9 accurately ripped (confidence 200) [0317D8E0]
Track 10 accurately ripped (confidence 200) [67B1E2F1]
Track 11 accurately ripped (confidence 200) [770DBBAF]
Track 12 accurately ripped (confidence 200) [FF9357AE]
Track 13 accurately ripped (confidence 200) [A4424D0D]
Track 14 accurately ripped (confidence 200) [67139956]
Track 15 accurately ripped (confidence 200) [2CA49EBB]
Track 16 accurately ripped (confidence 200) [F9E55FA0]

All tracks accurately ripped

End of status report

REM GENRE Metal
REM DATE 1998
REM DISCID 830F6B0B
REM COMMENT “ExactAudioCopy v0.99pb5”
PERFORMER “Metallica”
TITLE “Garage Inc. (Disc 1) [USA Elektra 62299-2]”
FILE “Metallica – Garage Inc. (Disc 1) [USA Elektra 62299-2].flac” WAVE
TRACK 01 AUDIO
TITLE “Free Speech For The Dumb”
PERFORMER “Metallica”
INDEX 00 00:00:00
INDEX 01 00:00:32
TRACK 02 AUDIO
TITLE “It’s Electric”
PERFORMER “Metallica”
INDEX 00 02:35:10
INDEX 01 02:35:72
TRACK 03 AUDIO
TITLE “Sabbra Cadabra”
PERFORMER “Metallica”
INDEX 00 06:09:10
INDEX 01 06:09:67
TRACK 04 AUDIO
TITLE “Turn The Page”
PERFORMER “Metallica”
INDEX 00 12:29:00
INDEX 01 12:30:10
TRACK 05 AUDIO
TITLE “Die, Die My Darling”
PERFORMER “Metallica”
INDEX 01 18:36:40
TRACK 06 AUDIO
TITLE “Loverman”
PERFORMER “Metallica”
INDEX 00 21:03:12
INDEX 01 21:05:65
TRACK 07 AUDIO
TITLE “Mercyful Fate”
PERFORMER “Metallica”
INDEX 00 28:57:57
INDEX 01 28:58:42
TRACK 08 AUDIO
TITLE “Astronomy”
PERFORMER “Metallica”
INDEX 00 40:08:40
INDEX 01 40:10:10
TRACK 09 AUDIO
TITLE “Whiskey In The Jar”
PERFORMER “Metallica”
INDEX 00 46:47:25
INDEX 01 46:47:50
TRACK 10 AUDIO
TITLE “Tuesday’s Gone”
PERFORMER “Metallica”
INDEX 00 51:52:00
INDEX 01 51:52:42
TRACK 11 AUDIO
TITLE “The More I See”
PERFORMER “Metallica”
INDEX 00 60:56:27
INDEX 01 60:58:22

REM GENRE Metal
REM DATE 1998
REM DISCID FA109A10
REM COMMENT “ExactAudioCopy v0.99pb5”
PERFORMER “Metallica”
TITLE “Garage Inc. (Disc 2) [USA Elektra 62299-2]”
FILE “Metallica – Garage Inc. (Disc 2) [USA Elektra 62299-2].flac” WAVE
TRACK 01 AUDIO
TITLE “Helpless”
PERFORMER “Metallica”
INDEX 00 00:00:00
INDEX 01 00:00:32
TRACK 02 AUDIO
TITLE “The Small Hours”
PERFORMER “Metallica”
INDEX 00 06:36:72
INDEX 01 06:38:57
TRACK 03 AUDIO
TITLE “The Wait”
PERFORMER “Metallica”
INDEX 00 13:19:25
INDEX 01 13:22:00
TRACK 04 AUDIO
TITLE “Crash Course In Brain Surgery”
PERFORMER “Metallica”
INDEX 00 18:14:22
INDEX 01 18:17:20
TRACK 05 AUDIO
TITLE “Last Caress/Green Hell”
PERFORMER “Metallica”
INDEX 00 21:25:42
INDEX 01 21:27:45
TRACK 06 AUDIO
TITLE “Am I Evil?”
PERFORMER “Metallica”
INDEX 00 24:56:20
INDEX 01 24:57:30
TRACK 07 AUDIO
TITLE “Blitzkreig”
PERFORMER “Metallica”
INDEX 00 32:47:12
INDEX 01 32:47:40
TRACK 08 AUDIO
TITLE “Breadfan”
PERFORMER “Metallica”
INDEX 00 36:23:52
INDEX 01 36:24:25
TRACK 09 AUDIO
TITLE “The Prince”
PERFORMER “Metallica”
INDEX 01 42:05:50
TRACK 10 AUDIO
TITLE “Stone Cold Crazy”
PERFORMER “Metallica”
INDEX 00 46:30:07
INDEX 01 46:31:20
TRACK 11 AUDIO
TITLE “So What”
PERFORMER “Metallica”
INDEX 00 48:47:70
INDEX 01 48:48:67
TRACK 12 AUDIO
TITLE “Killing Time”
PERFORMER “Metallica”
INDEX 00 51:57:07
INDEX 01 51:57:65
TRACK 13 AUDIO
TITLE “Overkill”
PERFORMER “Metallica”
INDEX 00 55:00:72
INDEX 01 55:01:52
TRACK 14 AUDIO
TITLE “Damage Case”
PERFORMER “Metallica”
INDEX 01 59:06:37
TRACK 15 AUDIO
TITLE “Stone Dead Forever”
PERFORMER “Metallica”
INDEX 01 62:46:60
TRACK 16 AUDIO
TITLE “Too Late Too Late”
PERFORMER “Metallica”
INDEX 01 67:38:55

Leave a Reply

Your email address will not be published. Required fields are marked *

This site uses Akismet to reduce spam. Learn how your comment data is processed.