Metallica – …And Justice For All (Remastered)




Artist: Metallica
Year: 1988/1995
Genre: Rock
Notes: Discogs
Add. Notes: Remastered
Cover incl.: Yes
Encoder: FLAC
Bitrate: ~1000 kBit/s (44.1 kHz/16 Bit/s)
Log & Cue incl.: Yes
Size: 475,63 MB
Password: “slam” (without ” “)


All Downloads/Hosters are compatible

Download 1
Turbobit.net
Rapidgator.net
UploadEver.com
JustUpload.io
UsersDrive.com
Download 2
Turbobit.net
Rapidgator.net
UploadEver.com
JustUpload.io
UsersDrive.com
Download 3
Turbobit.net
Rapidgator.net
UploadEver.com
JustUpload.io
UsersDrive.com

Tracklist:

1 - Blackened - 6:40
2 - ...And Justice For All - 9:44
3 - Eye Of The Beholder - 6:25
4 - One - 7:24
5 - The Shortest Straw - 6:35
6 - Harvester Of Sorrow - 5:42
7 - The Frayed Ends Of Sanity - 7:40
8 - To Live Is To Die - 9:48
9 - Dyers Eve - 5:12

EAC-Log, CUE-Sheed & NFO:

Click to open spoiler
Exact Audio Copy V1.0 beta 1 from 15. November 2010

EAC extraction logfile from 9. January 2011, 18:44

Metallica / …And Justice For All

Used drive : TEAC CD-W516EB Adapter: 0 ID: 0

Read mode : Secure
Utilize accurate stream : Yes
Defeat audio cache : Yes
Make use of C2 pointers : No

Read offset correction : 685
Overread into Lead-In and Lead-Out : No
Fill up missing offset samples with silence : Yes
Delete leading and trailing silent blocks : No
Null samples used in CRC calculations : Yes
Used interface : Native Win32 interface for Win NT & 2000

Used output format : Пользовательский кодировщик
Selected bitrate : 320 kBit/s
Quality : High
Add ID3 tag : No
Command line compressor : C:\Program Files\Exact Audio Copy\Flac\flac.exe
Additional command line options : -V -8 -T “artist=%a” -T “title=%t” -T “album=%g” -T “date=%y” -T “tracknumber=%n” -T “genre=%m” %s

TOC of the extracted CD

Track | Start | Length | Start sector | End sector
———————————————————
1 | 0:00.00 | 6:41.07 | 0 | 30081
2 | 6:41.07 | 9:46.38 | 30082 | 74069
3 | 16:27.45 | 6:30.02 | 74070 | 103321
4 | 22:57.47 | 7:27.33 | 103322 | 136879
5 | 30:25.05 | 6:35.72 | 136880 | 166576
6 | 37:01.02 | 5:45.53 | 166577 | 192504
7 | 42:46.55 | 7:44.00 | 192505 | 227304
8 | 50:30.55 | 9:48.70 | 227305 | 271474
9 | 60:19.50 | 5:13.27 | 271475 | 294976

Range status and errors

Selected range

Filename D:\CD\Rips\Metallica – …And Justice For All (1988)\Metallica – …And Justice For All.wav

Peak level 100.0 %
Extraction speed 0.1 X
Range quality 100.0 %
Test CRC D03EDE17
Copy CRC D03EDE17
Copy OK

No errors occurred

AccurateRip summary

Track 1 accurately ripped (confidence 116) [3CA5276C]
Track 2 accurately ripped (confidence 120) [AE55A09B]
Track 3 accurately ripped (confidence 115) [D2A263DB]
Track 4 accurately ripped (confidence 121) [47D61065]
Track 5 accurately ripped (confidence 116) [59BE298F]
Track 6 accurately ripped (confidence 118) [35FB9D5A]
Track 7 accurately ripped (confidence 116) [2658C909]
Track 8 accurately ripped (confidence 116) [8DF476AE]
Track 9 accurately ripped (confidence 110) [3A210E1B]

All tracks accurately ripped

End of status report

==== Log checksum 9E4CC77B1CFB4BCA33932590DAB0F86CF5B9432B3F3C96F581305303B11EB4E3 ====

REM GENRE “Thrash Metal”
REM DATE 1988
REM DISCID 7B0F5D09
REM COMMENT “ExactAudioCopy v1.0b1”
PERFORMER “Metallica”
TITLE “…And Justice For All”
FILE “Metallica – …And Justice For All.flac” WAVE
TRACK 01 AUDIO
TITLE “Blackened”
PERFORMER “Metallica”
INDEX 01 00:00:00
TRACK 02 AUDIO
TITLE “…And Justice For All”
PERFORMER “Metallica”
INDEX 00 06:39:05
INDEX 01 06:41:07
TRACK 03 AUDIO
TITLE “Eye Of The Beholder”
PERFORMER “Metallica”
INDEX 00 16:26:20
INDEX 01 16:27:45
TRACK 04 AUDIO
TITLE “One”
PERFORMER “Metallica”
INDEX 01 22:57:47
TRACK 05 AUDIO
TITLE “The Shortest Straw”
PERFORMER “Metallica”
INDEX 00 30:22:32
INDEX 01 30:25:05
TRACK 06 AUDIO
TITLE “Harvester Of Sorrow”
PERFORMER “Metallica”
INDEX 00 36:59:22
INDEX 01 37:01:02
TRACK 07 AUDIO
TITLE “The Frayed Ends Of Sanity”
PERFORMER “Metallica”
INDEX 00 42:45:15
INDEX 01 42:46:55
TRACK 08 AUDIO
TITLE “To Live Is To Die”
PERFORMER “Metallica”
INDEX 00 50:29:20
INDEX 01 50:30:55
TRACK 09 AUDIO
TITLE “Dyers Eve”
PERFORMER “Metallica”
INDEX 01 60:19:50

Leave a Reply

Your email address will not be published. Required fields are marked *

This site uses Akismet to reduce spam. Learn how your comment data is processed.