Metallica – …And Justice For All (Remastered Japanese Edition)




Artist: Metallica
Year: 1988/2010
Genre: Metal
Notes: Discogs
Add. Notes: Remastered Japanese Edition
Cover incl.: Yes
Encoder: FLAC
Bitrate: ~1000 kBit/s (44.1 kHz/16 Bit/s)
Log & Cue incl.: Yes
Size: 484,89 MB
Password: “slam” (without ” “)


All Downloads/Hosters are compatible

Download 1
Turbobit.net
Rapidgator.net
KatFile.com
UploadRar.com
Download 2
Turbobit.net
Rapidgator.net
KatFile.com
UploadRar.com

Tracklist:

1 - Blackened - 6:40
2 - ...And Justice For All - 9:44
3 - Eye Of The Beholder - 6:25
4 - One - 7:24
5 - The Shortest Straw - 6:35
6 - Harvester Of Sorrow - 5:42
7 - The Frayed Ends Of Sanity - 7:40
8 - To Live Is To Die - 9:48
9 - Dyers Eve - 5:12

EAC-Log, CUE-Sheed & NFO:

Click to open spoiler
Exact Audio Copy V0.99 prebeta 5 from 4. May 2009

EAC extraction logfile from 31. March 2012, 17:15

Metallica / …And Justice For All (SHM-CD, UICY-94665)

Used drive : PLEXTOR DVDR PX-760A Adapter: 0 ID: 0

Read mode : Secure
Utilize accurate stream : Yes
Defeat audio cache : Yes
Make use of C2 pointers : No

Read offset correction : 30
Overread into Lead-In and Lead-Out : No
Fill up missing offset samples with silence : Yes
Delete leading and trailing silent blocks : No
Null samples used in CRC calculations : Yes
Used interface : Native Win32 interface for Win NT & 2000

Used output format : User Defined Encoder
Selected bitrate : 1024 kBit/s
Quality : High
Add ID3 tag : No
Command line compressor : C:\Program Files (x86)\Exact Audio Copy\Flac\flac.exe
Additional command line options : -8 -V %s

TOC of the extracted CD

Track | Start | Length | Start sector | End sector
———————————————————
1 | 0:00.00 | 6:41.42 | 0 | 30116
2 | 6:41.42 | 9:46.28 | 30117 | 74094
3 | 16:27.70 | 6:24.39 | 74095 | 102933
4 | 22:52.34 | 7:25.13 | 102934 | 136321
5 | 30:17.47 | 6:34.10 | 136322 | 165881
6 | 36:51.57 | 5:44.35 | 165882 | 191716
7 | 42:36.17 | 7:42.33 | 191717 | 226399
8 | 50:18.50 | 9:47.17 | 226400 | 270441
9 | 60:05.67 | 5:12.18 | 270442 | 293859

Range status and errors

Selected range

Filename E:\bki71\Metallica\Metallica – …And Justice For All (SHM-CD, UICY-94665).wav

Peak level 99.9 %
Range quality 100.0 %
Test CRC A5AC8BE9
Copy CRC A5AC8BE9
Copy OK

No errors occurred

AccurateRip summary

Track 1 accurately ripped (confidence 7) [FBC5DA22]
Track 2 accurately ripped (confidence 6) [3EB9361C]
Track 3 accurately ripped (confidence 7) [3593759C]
Track 4 accurately ripped (confidence 7) [7A3C45D0]
Track 5 accurately ripped (confidence 7) [EA1E58BB]
Track 6 accurately ripped (confidence 7) [3004380E]
Track 7 accurately ripped (confidence 6) [CEC2B36E]
Track 8 accurately ripped (confidence 6) [3D0A1588]
Track 9 accurately ripped (confidence 7) [6993B6DE]

All tracks accurately ripped

End of status report
,

REM GENRE “Thrash Metal”
REM DATE 1988
REM DISCID 760F4E09
REM COMMENT “ExactAudioCopy v0.99pb5”
PERFORMER “Metallica”
TITLE “…And Justice For All (SHM-CD, UICY-94665)”
FILE “Metallica – …And Justice For All (SHM-CD, UICY-94665).flac” WAVE
TRACK 01 AUDIO
TITLE “Blackened”
PERFORMER “Metallica”
INDEX 01 00:00:00
TRACK 02 AUDIO
TITLE “…And Justice For All”
PERFORMER “Metallica”
INDEX 00 06:39:32
INDEX 01 06:41:42
TRACK 03 AUDIO
TITLE “Eye Of The Beholder”
PERFORMER “Metallica”
INDEX 00 16:26:09
INDEX 01 16:27:70
TRACK 04 AUDIO
TITLE “One”
PERFORMER “Metallica”
INDEX 01 22:52:34
TRACK 05 AUDIO
TITLE “The Shortest Straw”
PERFORMER “Metallica”
INDEX 00 30:15:61
INDEX 01 30:17:47
TRACK 06 AUDIO
TITLE “Harvester Of Sorrow”
PERFORMER “Metallica”
INDEX 00 36:50:48
INDEX 01 36:51:57
TRACK 07 AUDIO
TITLE “The Frayed Ends Of Sanity”
PERFORMER “Metallica”
INDEX 00 42:34:60
INDEX 01 42:36:17
TRACK 08 AUDIO
TITLE “To Live Is To Die”
PERFORMER “Metallica”
INDEX 00 50:16:64
INDEX 01 50:18:50
TRACK 09 AUDIO
TITLE “Dyers Eve”
PERFORMER “Metallica”
INDEX 01 60:05:67


Leave a Reply

Your email address will not be published. Required fields are marked *

This site uses Akismet to reduce spam. Learn how your comment data is processed.