Metallica – …And Justice For All (Limited Edition)




Artist: Metallica
Year: 1988/1994
Genre: Metal
Notes: Discogs
Add. Notes: Limited Edition
Cover incl.: Yes
Encoder: FLAC
Bitrate: ~900 kBit/s (44.1 kHz/16 Bit/s)
Log & Cue incl.: Yes
Size: 1261,39 MB
Password: “slam” (without ” “)


All Downloads/Hosters are compatible

Download 1
KatFile.com
Turbobit.net
FileFactory.com
Rapidgator.net
Download 2
KatFile.com
Turbobit.net
FileFactory.com
Rapidgator.net
Download 3
KatFile.com
Turbobit.net
FileFactory.com
Rapidgator.net

Tracklist:

1-1 - Blackened - 6:43
1-2 - ...And Justice For All - 9:46
1-3 - Eye Of The Beholder - 6:26
1-4 - One - 7:26
1-5 - The Shortest Straw - 6:35
1-6 - Harvester Of Sorrow - 5:45
1-7 - The Frayed Ends Of Sanity - 7:43
1-8 - To Live Is To Die - 9:49
1-9 - Dyers Eve - 5:15
Bonus 3-Track CD Single
2-1 - One - 7:25
2-2 - One (Demo) - 7:05
2-3 - One (Live) - 9:38

EAC-Log, CUE-Sheed & NFO:

Click to open spoiler
Exact Audio Copy V0.99 prebeta 5 from 4. May 2009

EAC extraction logfile from 26. June 2013, 1:39

Metallica / One (Australia Vertigo 858 545-2)

Used drive : PLEXTOR DVDR PX-760A Adapter: 0 ID: 0

Read mode : Secure
Utilize accurate stream : Yes
Defeat audio cache : Yes
Make use of C2 pointers : No

Read offset correction : 30
Overread into Lead-In and Lead-Out : No
Fill up missing offset samples with silence : Yes
Delete leading and trailing silent blocks : No
Null samples used in CRC calculations : Yes
Used interface : Native Win32 interface for Win NT & 2000

Used output format : User Defined Encoder
Selected bitrate : 1024 kBit/s
Quality : High
Add ID3 tag : No
Command line compressor : C:\Program Files (x86)\Exact Audio Copy\Flac\flac.exe
Additional command line options : -8 -V %s

TOC of the extracted CD

Track | Start | Length | Start sector | End sector
———————————————————
1 | 0:00.00 | 7:25.10 | 0 | 33384
2 | 7:25.10 | 7:04.45 | 33385 | 65229
3 | 14:29.55 | 9:38.00 | 65230 | 108579

Range status and errors

Selected range

Filename D:\bki71\Metallica\Metallica – One (Australia Vertigo 858 545-2).wav

Peak level 100.0 %
Range quality 100.0 %
Test CRC F3DE922E
Copy CRC F3DE922E
Copy OK

No errors occurred

AccurateRip summary

Track 1 accurately ripped (confidence 5) [C767965E]
Track 2 accurately ripped (confidence 5) [3941D5BB]
Track 3 accurately ripped (confidence 5) [CD800707]

All tracks accurately ripped

End of status report

Exact Audio Copy V0.99 prebeta 5 from 4. May 2009

EAC extraction logfile from 26. June 2013, 0:56

Metallica / …And Justice For All (Australia Vertigo 836 062-2)

Used drive : PLEXTOR DVDR PX-760A Adapter: 0 ID: 0

Read mode : Secure
Utilize accurate stream : Yes
Defeat audio cache : Yes
Make use of C2 pointers : No

Read offset correction : 30
Overread into Lead-In and Lead-Out : No
Fill up missing offset samples with silence : Yes
Delete leading and trailing silent blocks : No
Null samples used in CRC calculations : Yes
Used interface : Native Win32 interface for Win NT & 2000

Used output format : User Defined Encoder
Selected bitrate : 1024 kBit/s
Quality : High
Add ID3 tag : No
Command line compressor : C:\Program Files (x86)\Exact Audio Copy\Flac\flac.exe
Additional command line options : -8 -V %s

TOC of the extracted CD

Track | Start | Length | Start sector | End sector
———————————————————
1 | 0:00.00 | 6:43.10 | 0 | 30234
2 | 6:43.10 | 9:45.60 | 30235 | 74169
3 | 16:28.70 | 6:25.67 | 74170 | 103111
4 | 22:54.62 | 7:26.18 | 103112 | 136579
5 | 30:21.05 | 6:35.25 | 136580 | 166229
6 | 36:56.30 | 5:45.35 | 166230 | 192139
7 | 42:41.65 | 7:43.35 | 192140 | 226899
8 | 50:25.25 | 9:48.60 | 226900 | 271059
9 | 60:14.10 | 5:14.65 | 271060 | 294674

Range status and errors

Selected range

Filename D:\bki71\Metallica\Metallica – …And Justice For All (Australia Vertigo 836 062-2).wav

Peak level 99.5 %
Range quality 99.9 %
Test CRC D2F0A2B2
Copy CRC D2F0A2B2
Copy OK

No errors occurred

AccurateRip summary

Track 1 accurately ripped (confidence 2) [58768733]
Track 2 accurately ripped (confidence 2) [1D2ABCE1]
Track 3 accurately ripped (confidence 2) [ADE9358B]
Track 4 accurately ripped (confidence 2) [1483C17B]
Track 5 accurately ripped (confidence 2) [A6A4B8AF]
Track 6 accurately ripped (confidence 2) [C2B73193]
Track 7 accurately ripped (confidence 2) [603577FD]
Track 8 accurately ripped (confidence 2) [1F1BFAC1]
Track 9 accurately ripped (confidence 2) [E3E139C0]

All tracks accurately ripped

End of status report

REM GENRE “Thrash Metal”
REM DATE 1988
REM DISCID 750F5909
REM COMMENT “ExactAudioCopy v0.99pb5”
PERFORMER “Metallica”
TITLE “…And Justice For All (Australia Vertigo 836 062-2) ”
FILE “Metallica – …And Justice For All (Australia Vertigo 836 062-2).flac” WAVE
TRACK 01 AUDIO
TITLE “Blackened”
PERFORMER “Metallica”
INDEX 01 00:00:00
TRACK 02 AUDIO
TITLE “And Justice For All”
PERFORMER “Metallica”
INDEX 00 06:41:65
INDEX 01 06:43:10
TRACK 03 AUDIO
TITLE “Eye Of The Beholder”
PERFORMER “Metallica”
INDEX 01 16:28:70
TRACK 04 AUDIO
TITLE “One”
PERFORMER “Metallica”
INDEX 01 22:54:62
TRACK 05 AUDIO
TITLE “The Shortest Straw”
PERFORMER “Metallica”
INDEX 00 30:19:02
INDEX 01 30:21:05
TRACK 06 AUDIO
TITLE “Harvester Of Sorrow”
PERFORMER “Metallica”
INDEX 01 36:56:30
TRACK 07 AUDIO
TITLE “The Frayed Ends Of Sanity”
PERFORMER “Metallica”
INDEX 00 42:41:17
INDEX 01 42:41:65
TRACK 08 AUDIO
TITLE “To Live Is To Die”
PERFORMER “Metallica”
INDEX 00 50:24:05
INDEX 01 50:25:25
TRACK 09 AUDIO
TITLE “Dyers Eve”
PERFORMER “Metallica”
INDEX 01 60:14:10

REM GENRE “Thrash Metal”
REM DATE 1994
REM DISCID 2105A703
REM COMMENT “ExactAudioCopy v0.99pb5”
PERFORMER “Metallica”
TITLE “One (Australia Vertigo 858 545-2)”
FILE “Metallica – One (Australia Vertigo 858 545-2).flac” WAVE
TRACK 01 AUDIO
TITLE “One”
PERFORMER “Metallica”
INDEX 01 00:00:00
TRACK 02 AUDIO
TITLE “One (Demo)”
PERFORMER “Metallica”
INDEX 00 07:24:30
INDEX 01 07:25:10
TRACK 03 AUDIO
TITLE “One (Live)”
PERFORMER “Metallica”
INDEX 00 14:28:67
INDEX 01 14:29:55


Leave a Reply

Your email address will not be published. Required fields are marked *

This site uses Akismet to reduce spam. Learn how your comment data is processed.