Metallica – …And Justice For All (Club Edition)




Artist: Metallica
Year: 1988
Genre: Rock
Notes: Discogs
Add. Notes: Club Edition
Cover incl.: Yes
Encoder: FLAC
Bitrate: ~900 kBit/s (44.1 kHz/16 Bit/s)
Log & Cue incl.: Yes
Size: 458,09 MB
Password: “slam” (without ” “)


All Downloads/Hosters are compatible

Download 1
Turbobit.net
Rapidgator.net
KatFile.com
UploadRar.com
Download 2
Turbobit.net
Rapidgator.net
KatFile.com
UploadRar.com

Tracklist:

1 - Blackened - 6:40
2 - ...And Justice For All - 9:44
3 - Eye Of The Beholder - 6:25
4 - One - 7:24
5 - The Shortest Straw - 6:35
6 - Harvester Of Sorrow - 5:42
7 - The Frayed Ends Of Sanity - 7:40
8 - To Live Is To Die - 9:48
9 - Dyers Eve - 5:12

EAC-Log, CUE-Sheed & NFO:

Click to open spoiler
Exact Audio Copy V1.0 beta 3 from 29. August 2011

EAC extraction logfile from 2. July 2015, 17:05

Metallica / …And Justice For All (USA by JVC, Elektra E2 60812)

Used drive : PLEXTOR DVDR PX-760A Adapter: 1 ID: 0

Read mode : Secure
Utilize accurate stream : Yes
Defeat audio cache : Yes
Make use of C2 pointers : No

Read offset correction : 30
Overread into Lead-In and Lead-Out : No
Fill up missing offset samples with silence : Yes
Delete leading and trailing silent blocks : No
Null samples used in CRC calculations : Yes
Used interface : Native Win32 interface for Win NT & 2000

Used output format : User Defined Encoder
Selected bitrate : 1024 kBit/s
Quality : High
Add ID3 tag : No
Command line compressor : C:\Program Files (x86)\Exact Audio Copy\Flac\flac.exe
Additional command line options : -V -8 -T “Date=%year%” -T “Genre=%genre%” %source%

TOC of the extracted CD

Track | Start | Length | Start sector | End sector
———————————————————
1 | 0:00.37 | 6:43.43 | 37 | 30304
2 | 6:44.05 | 9:45.62 | 30305 | 74241
3 | 16:29.67 | 6:25.33 | 74242 | 103149
4 | 22:55.25 | 7:26.52 | 103150 | 136651
5 | 30:22.02 | 6:35.23 | 136652 | 166299
6 | 36:57.25 | 5:45.32 | 166300 | 192206
7 | 42:42.57 | 7:44.03 | 192207 | 227009
8 | 50:26.60 | 9:48.17 | 227010 | 271126
9 | 60:15.02 | 5:14.23 | 271127 | 294699

Range status and errors

Selected range

Filename F:\metallihead\Metallica – …And Justice For All (USA by JVC, Elektra E2 60812).wav

Peak level 99.5 %
Extraction speed 2.5 X
Range quality 100.0 %
Test CRC EC60BEA2
Copy CRC EC60BEA2
Copy OK

No errors occurred

AccurateRip summary

Track 1 accurately ripped (confidence 8) [D03D7A03] (AR v2)
Track 2 accurately ripped (confidence 8) [C28EB7D8] (AR v2)
Track 3 accurately ripped (confidence 8) [FC9CEDDE] (AR v2)
Track 4 accurately ripped (confidence 8) [301275ED] (AR v2)
Track 5 accurately ripped (confidence 8) [3DA02AAB] (AR v2)
Track 6 accurately ripped (confidence 8) [ACD9890A] (AR v2)
Track 7 accurately ripped (confidence 8) [DEF0DC5C] (AR v2)
Track 8 accurately ripped (confidence 8) [C84EE127] (AR v2)
Track 9 accurately ripped (confidence 9) [841405AB] (AR v2)

All tracks accurately ripped

End of status report

==== Log checksum E8739D3051DF19C9B66E0EEE7A82EDF1E1475EF326D0621EA138CA7B0CA08C15 ====

REM GENRE “Thrash Metal”
REM DATE 1988
REM DISCID 7D0F5909
REM COMMENT “ExactAudioCopy v1.0b3”
PERFORMER “Metallica”
TITLE “…And Justice For All (USA by JVC, Elektra E2 60812)”
FILE “Metallica – …And Justice For All (USA by JVC, Elektra E2 60812).flac” WAVE
TRACK 01 AUDIO
TITLE “Blackened”
PERFORMER “Metallica”
INDEX 00 00:00:00
INDEX 01 00:00:37
TRACK 02 AUDIO
TITLE “…And Justice For All”
PERFORMER “Metallica”
INDEX 00 06:41:58
INDEX 01 06:44:05
TRACK 03 AUDIO
TITLE “Eye Of The Beholder”
PERFORMER “Metallica”
INDEX 00 16:28:73
INDEX 01 16:29:67
TRACK 04 AUDIO
TITLE “One”
PERFORMER “Metallica”
INDEX 01 22:55:25
TRACK 05 AUDIO
TITLE “The Shortest Straw”
PERFORMER “Metallica”
INDEX 00 30:19:05
INDEX 01 30:22:02
TRACK 06 AUDIO
TITLE “Harvester Of Sorrow”
PERFORMER “Metallica”
INDEX 00 36:55:55
INDEX 01 36:57:25
TRACK 07 AUDIO
TITLE “The Frayed Ends Of Sanity”
PERFORMER “Metallica”
INDEX 00 42:40:50
INDEX 01 42:42:57
TRACK 08 AUDIO
TITLE “To Live Is To Die”
PERFORMER “Metallica”
INDEX 00 50:24:08
INDEX 01 50:26:60
TRACK 09 AUDIO
TITLE “Dyers Eve”
PERFORMER “Metallica”
INDEX 01 60:15:02


Leave a Reply

Your email address will not be published. Required fields are marked *

This site uses Akismet to reduce spam. Learn how your comment data is processed.