Metallica – …And Justice For All (1st press) (Japanese Edition)




Artist: Metallica
Year: 1988
Genre: Metal
Notes: Discogs
Add. Notes: Japanese Edition
Cover incl.: Yes
Encoder: FLAC
Bitrate: ~900 kBit/s (44.1 kHz/16 Bit/s)
Log & Cue incl.: Yes
Size: 511,2 MB
Password: “slam” (without ” “)


All Downloads/Hosters are compatible

Download 1
Turbobit.net
Rapidgator.net
UploadEver.com
KatFile.com
UsersDrive.com
Download 2
Turbobit.net
Rapidgator.net
UploadEver.com
KatFile.com
UsersDrive.com
Download 3
Turbobit.net
Rapidgator.net
UploadEver.com
KatFile.com
UsersDrive.com

Tracklist:

1 - Blackened - 6:40
2 - ...And Justice For All - 9:44
3 - Eye Of The Beholder - 6:25
4 - One - 7:24
5 - The Shortest Straw - 6:35
6 - Harvester Of Sorrow - 5:42
7 - The Frayed Ends Of Sanity - 7:40
8 - To Live Is To Die - 9:48
9 - Dyers Eve - 5:12
10 - The Prince - 4:26

EAC-Log, CUE-Sheed & NFO:

Click to open spoiler
Exact Audio Copy V0.99 prebeta 4 from 23. January 2008

EAC extraction logfile from 4. June 2011, 15:48

Metallica / …And Justice For All (25DP 5178)

Used drive : PLEXTOR DVDR PX-760A Adapter: 0 ID: 0

Read mode : Secure
Utilize accurate stream : Yes
Defeat audio cache : Yes
Make use of C2 pointers : No

Read offset correction : 30
Overread into Lead-In and Lead-Out : No
Fill up missing offset samples with silence : Yes
Delete leading and trailing silent blocks : No
Null samples used in CRC calculations : Yes
Used interface : Installed external ASPI interface

Used output format : Internal WAV Routines
Sample format : 44.100 Hz; 16 Bit; Stereo

TOC of the extracted CD

Track | Start | Length | Start sector | End sector
———————————————————
1 | 0:00.00 | 6:42.42 | 0 | 30191
2 | 6:42.42 | 9:45.65 | 30192 | 74131
3 | 16:28.32 | 6:26.03 | 74132 | 103084
4 | 22:54.35 | 7:25.70 | 103085 | 136529
5 | 30:20.30 | 6:35.32 | 136530 | 166186
6 | 36:55.62 | 5:45.28 | 166187 | 192089
7 | 42:41.15 | 7:43.72 | 192090 | 226886
8 | 50:25.12 | 9:48.38 | 226887 | 271024
9 | 60:13.50 | 5:16.30 | 271025 | 294754
10 | 65:30.05 | 4:26.32 | 294755 | 314736

Range status and errors

Selected range

Filename D:\bki71\Metallica\Studio Albums\1988 – …And Justice For All\Metallica – …And Justice For All (25DP 5178).wav

Peak level 99.9 %
Range quality 100.0 %
Test CRC 68297A65
Copy CRC 68297A65
Copy OK

No errors occurred

AccurateRip summary

Track 1 accurately ripped (confidence 6) [1850152C]
Track 2 accurately ripped (confidence 6) [05D0EF8C]
Track 3 accurately ripped (confidence 6) [C9E63318]
Track 4 accurately ripped (confidence 6) [A28BC812]
Track 5 accurately ripped (confidence 6) [4A37CE1B]
Track 6 accurately ripped (confidence 6) [4B99C898]
Track 7 accurately ripped (confidence 6) [FF800000]
Track 8 accurately ripped (confidence 6) [C50BE76D]
Track 9 accurately ripped (confidence 6) [37D837D5]
Track 10 accurately ripped (confidence 6) [9B30BCE1]

All tracks accurately ripped

End of status report

REM GENRE “Thrash Metal”
REM DATE 1988
REM DISCID 8210640A
REM COMMENT “ExactAudioCopy v0.99pb4”
PERFORMER “Metallica”
TITLE “…And Justice For All (25DP 5178)”
FILE “Metallica – …And Justice For All (25DP 5178).flac” WAVE
TRACK 01 AUDIO
TITLE “Blackened”
PERFORMER “Metallica”
INDEX 01 00:00:00
TRACK 02 AUDIO
TITLE “…And Justice For All”
PERFORMER “Metallica”
INDEX 00 06:41:37
INDEX 01 06:42:42
TRACK 03 AUDIO
TITLE “Eye Of The Beholder”
PERFORMER “Metallica”
INDEX 01 16:28:32
TRACK 04 AUDIO
TITLE “One”
PERFORMER “Metallica”
INDEX 01 22:54:35
TRACK 05 AUDIO
TITLE “The Shortest Straw”
PERFORMER “Metallica”
INDEX 00 30:18:50
INDEX 01 30:20:30
TRACK 06 AUDIO
TITLE “Harvester of Sorrow”
PERFORMER “Metallica”
INDEX 01 36:55:62
TRACK 07 AUDIO
TITLE “The Frayed Ends of Sanity”
PERFORMER “Metallica”
INDEX 00 42:40:25
INDEX 01 42:41:15
TRACK 08 AUDIO
TITLE “To Live Is To Die”
PERFORMER “Metallica”
INDEX 00 50:23:60
INDEX 01 50:25:12
TRACK 09 AUDIO
TITLE “Dyers Eve”
PERFORMER “Metallica”
INDEX 01 60:13:50
TRACK 10 AUDIO
TITLE “The Prince (Bonus Track For Japan)”
PERFORMER “Metallica”
INDEX 00 65:28:07
INDEX 01 65:30:05

Leave a Reply

Your email address will not be published. Required fields are marked *

Enter the text from the image below
 

This site uses Akismet to reduce spam. Learn how your comment data is processed.