Metallica – Metallica (1st press) (Japanese Edition)




No Cover available


Artist: Metallica
Year: 1991
Genre: Metal
Notes: Discogs
Add. Notes: Japanese Edition
Watch Songs on: YouTube
Cover incl.: Yes
Encoder: FLAC
Bitrate: ~1000 kBit/s (44.1 kHz/16 Bit/s)
Log & Cue incl.: Yes/Yes
Size: 478,4 MB
Password: “slam” (without ” “)


All Downloads/Hosters are compatible

Download 1
KatFile.com
Turbobit.net
Rapidgator.net
FileFactory.com
Download 2
KatFile.com
Turbobit.net
Rapidgator.net
FileFactory.com

Tracklist:

1 - Enter Sandman - 5:32
2 - Sad But True - 5:24
3 - Holier Than Thou - 3:47
4 - The Unforgiven - 6:27
5 - Wherever I May Roam - 6:44
6 - Don't Tread On Me - 4:00
7 - Through The Never - 4:04
8 - Nothing Else Matters - 6:28
9 - Of Wolf And Man - 4:16
10 - The God That Failed - 5:08
11 - My Friend Of Misery - 6:48
12 - The Struggle Within - 3:53
13 - So What - 3:08

EAC-Log, CUE-Sheed & NFO:

Click to open spoiler
Exact Audio Copy V1.0 beta 1 from 15. November 2010

EAC extraction logfile from 12. June 2011, 14:38

Metallica / Metallica (SRCS 5577)

Used drive : PLEXTOR DVDR PX-760A Adapter: 0 ID: 0

Read mode : Secure
Utilize accurate stream : Yes
Defeat audio cache : Yes
Make use of C2 pointers : No

Read offset correction : 30
Overread into Lead-In and Lead-Out : No
Fill up missing offset samples with silence : Yes
Delete leading and trailing silent blocks : No
Null samples used in CRC calculations : Yes
Used interface : Native Win32 interface for Win NT & 2000

Used output format : User Defined Encoder
Selected bitrate : 1024 kBit/s
Quality : High
Add ID3 tag : No
Command line compressor : C:\Program Files (x86)\Exact Audio Copy\Flac\flac.exe
Additional command line options : -T “DATE=%y” -T “GENRE=%m” -8 -V %s

TOC of the extracted CD

Track | Start | Length | Start sector | End sector
———————————————————
1 | 0:00.00 | 5:32.05 | 0 | 24904
2 | 5:32.05 | 5:24.45 | 24905 | 49249
3 | 10:56.50 | 3:47.45 | 49250 | 66319
4 | 14:44.20 | 6:27.15 | 66320 | 95359
5 | 21:11.35 | 6:44.20 | 95360 | 125679
6 | 27:55.55 | 4:00.12 | 125680 | 143691
7 | 31:55.67 | 4:04.38 | 143692 | 162029
8 | 36:00.30 | 6:28.57 | 162030 | 191186
9 | 42:29.12 | 4:16.43 | 191187 | 210429
10 | 46:45.55 | 5:08.40 | 210430 | 233569
11 | 51:54.20 | 6:49.50 | 233570 | 264294
12 | 58:43.70 | 3:53.72 | 264295 | 281841
13 | 62:37.67 | 3:08.25 | 281842 | 295966

Range status and errors

Selected range

Filename D:\bki71\Metallica\Studio Albums\1991 – Metallica\Metallica – Metallica (SRCS 5577).wav

Peak level 100.0 %
Extraction speed 0.4 X
Range quality 100.0 %
Test CRC ECA99B05
Copy CRC ECA99B05
Copy OK

No errors occurred

AccurateRip summary

Track 1 accurately ripped (confidence 14) [64CB05B9]
Track 2 accurately ripped (confidence 14) [5ECD878C]
Track 3 accurately ripped (confidence 14) [D750F085]
Track 4 accurately ripped (confidence 14) [CF5C80D7]
Track 5 accurately ripped (confidence 14) [3E5CF35B]
Track 6 accurately ripped (confidence 14) [33F5FB46]
Track 7 accurately ripped (confidence 14) [DC5DD8A2]
Track 8 accurately ripped (confidence 15) [43D1AA10]
Track 9 accurately ripped (confidence 14) [CD432518]
Track 10 accurately ripped (confidence 14) [8569327C]
Track 11 accurately ripped (confidence 15) [5A573500]
Track 12 accurately ripped (confidence 15) [4460EC3F]
Track 13 accurately ripped (confidence 15) [380F9FFB]

All tracks accurately ripped

End of status report

==== Log checksum 34FB598AB67F6500026B9BD5279B3AFB1D3C25D79B7903CB306689E56A277344 ====

REM GENRE “Thrash Metal”
REM DATE 1991
REM DISCID C40F6A0D
REM COMMENT “ExactAudioCopy v1.0b1”
PERFORMER “Metallica”
TITLE “Metallica (SRCS 5577)”
FILE “Metallica – Metallica (SRCS 5577).flac” WAVE
TRACK 01 AUDIO
TITLE “Enter Sandman”
PERFORMER “Metallica”
INDEX 01 00:00:00
TRACK 02 AUDIO
TITLE “Sad But True”
PERFORMER “Metallica”
INDEX 01 05:32:05
TRACK 03 AUDIO
TITLE “Holier Than Thou”
PERFORMER “Metallica”
INDEX 01 10:56:50
TRACK 04 AUDIO
TITLE “The Unforgiven”
PERFORMER “Metallica”
INDEX 01 14:44:20
TRACK 05 AUDIO
TITLE “Wherever I May Roam”
PERFORMER “Metallica”
INDEX 01 21:11:35
TRACK 06 AUDIO
TITLE “Don’t Tread On Me”
PERFORMER “Metallica”
INDEX 01 27:55:55
TRACK 07 AUDIO
TITLE “Through The Never”
PERFORMER “Metallica”
INDEX 01 31:55:67
TRACK 08 AUDIO
TITLE “Nothing Else Matters”
PERFORMER “Metallica”
INDEX 01 36:00:30
TRACK 09 AUDIO
TITLE “Of Wolf And Man”
PERFORMER “Metallica”
INDEX 01 42:29:12
TRACK 10 AUDIO
TITLE “The God That Failed”
PERFORMER “Metallica”
INDEX 01 46:45:55
TRACK 11 AUDIO
TITLE “My Friend Of Misery”
PERFORMER “Metallica”
INDEX 01 51:54:20
TRACK 12 AUDIO
TITLE “The Struggle Within”
PERFORMER “Metallica”
INDEX 00 58:43:17
INDEX 01 58:43:70
TRACK 13 AUDIO
TITLE “So What”
PERFORMER “Metallica”
INDEX 01 62:37:67


Leave a Reply

Your email address will not be published. Required fields are marked *

Enter the text from the image below
 

This site uses Akismet to reduce spam. Learn how your comment data is processed.