Metallica – 15 Pieces Of Live Shit: Binge & Purge (US-Promo)




Artist: Metallica
Year: 1993
Genre: Metal
Notes: Discogs
Add. Notes:
Cover incl.: Yes
Encoder: FLAC
Bitrate: ~1000 kBit/s (44.1 kHz/16 Bit/s)
Log & Cue incl.: Yes
Size: 725,8 MB
Password: “slam” (without ” “)


All Downloads/Hosters are compatible

Download 1
Turbobit.net
Rapidgator.net
KatFile.com
UploadRar.com
Download 2
Turbobit.net
Rapidgator.net
KatFile.com
UploadRar.com
Download 3
Turbobit.net
Rapidgator.net
KatFile.com
UploadRar.com

Tracklist:

1-1 - Enter Sandman - 5:43
1-2 - Creeping Death - 7:46
1-3 - Harvester Of Sorrow - 7:01
1-4 - Welcome Home (Sanitarium) - 7:00
1-5 - Sad But True - 5:53
1-6 - Wherever I May Roam - 7:05
1-7 - The Unforgiven - 6:48
1-8 - The Thing That Should Not Be - 6:34
2-1 - Nothing Else Matters - 6:25
2-2 - For Whom The Bell Tolls - 5:42
2-3 - Fade To Black - 7:24
2-4 - Master Of Puppets - 9:07
2-5 - Seek & Destroy - 7:47
2-6 - One - 8:22
2-7 - Battery - 5:24

EAC-Log, CUE-Sheed & NFO:

Click to open spoiler
Exact Audio Copy V0.99 prebeta 5 from 4. May 2009

EAC extraction logfile from 27. August 2011, 23:56

Metallica / 15 Pieces Of Live Shit: Binge & Purge (Disc 1)

Used drive : PLEXTOR DVDR PX-760A Adapter: 0 ID: 0

Read mode : Secure
Utilize accurate stream : Yes
Defeat audio cache : Yes
Make use of C2 pointers : No

Read offset correction : 30
Overread into Lead-In and Lead-Out : No
Fill up missing offset samples with silence : Yes
Delete leading and trailing silent blocks : No
Null samples used in CRC calculations : Yes
Used interface : Native Win32 interface for Win NT & 2000

Used output format : User Defined Encoder
Selected bitrate : 1024 kBit/s
Quality : High
Add ID3 tag : No
Command line compressor : C:\Program Files (x86)\Exact Audio Copy\Flac\flac.exe
Additional command line options : -8 -V %s

TOC of the extracted CD

Track | Start | Length | Start sector | End sector
———————————————————
1 | 0:00.32 | 5:43.28 | 32 | 25784
2 | 5:43.60 | 7:46.00 | 25785 | 60734
3 | 13:29.60 | 7:01.10 | 60735 | 92319
4 | 20:30.70 | 7:00.20 | 92320 | 123839
5 | 27:31.15 | 5:53.27 | 123840 | 150341
6 | 33:24.42 | 7:05.00 | 150342 | 182216
7 | 40:29.42 | 6:48.53 | 182217 | 212869
8 | 47:18.20 | 6:34.42 | 212870 | 242461

Range status and errors

Selected range

Filename D:\bki71\Metallica\Metallica – 15 Pieces Of Live Shit Binge & Purge (Disc 1).wav

Peak level 100.0 %
Range quality 100.0 %
Test CRC 4569711E
Copy CRC 4569711E
Copy OK

No errors occurred

AccurateRip summary

Track 1 accurately ripped (confidence 1) [9846C921]
Track 2 accurately ripped (confidence 1) [575486C8]
Track 3 accurately ripped (confidence 1) [5E41F374]
Track 4 accurately ripped (confidence 1) [84D96BE8]
Track 5 accurately ripped (confidence 1) [C052D360]
Track 6 accurately ripped (confidence 1) [A4C348ED]
Track 7 accurately ripped (confidence 1) [06F36F7C]
Track 8 accurately ripped (confidence 1) [DC69DC9B]

All tracks accurately ripped

End of status report

Exact Audio Copy V0.99 prebeta 5 from 4. May 2009

EAC extraction logfile from 28. August 2011, 0:44

Metallica / 15 Pieces Of Live Shit: Binge & Purge (Disc 2)

Used drive : PLEXTOR DVDR PX-760A Adapter: 0 ID: 0

Read mode : Secure
Utilize accurate stream : Yes
Defeat audio cache : Yes
Make use of C2 pointers : No

Read offset correction : 30
Overread into Lead-In and Lead-Out : No
Fill up missing offset samples with silence : Yes
Delete leading and trailing silent blocks : No
Null samples used in CRC calculations : Yes
Used interface : Native Win32 interface for Win NT & 2000

Used output format : User Defined Encoder
Selected bitrate : 1024 kBit/s
Quality : High
Add ID3 tag : No
Command line compressor : C:\Program Files (x86)\Exact Audio Copy\Flac\flac.exe
Additional command line options : -8 -V %s

TOC of the extracted CD

Track | Start | Length | Start sector | End sector
———————————————————
1 | 0:00.32 | 6:25.48 | 32 | 28954
2 | 6:26.05 | 5:42.72 | 28955 | 54676
3 | 12:09.02 | 7:24.20 | 54677 | 87996
4 | 19:33.22 | 9:07.50 | 87997 | 129071
5 | 28:40.72 | 7:47.50 | 129072 | 164146
6 | 36:28.47 | 8:22.35 | 164147 | 201831
7 | 44:51.07 | 5:24.58 | 201832 | 226189

Range status and errors

Selected range

Filename D:\bki71\Metallica\Metallica – 15 Pieces Of Live Shit Binge & Purge (Disc 2).wav

Peak level 100.0 %
Range quality 100.0 %
Test CRC 6ED67EF3
Copy CRC 6ED67EF3
Copy OK

No errors occurred

AccurateRip summary

Track 1 accurately ripped (confidence 2) [DA9B999E]
Track 2 accurately ripped (confidence 2) [46AE3A9F]
Track 3 accurately ripped (confidence 2) [339DFA15]
Track 4 accurately ripped (confidence 2) [475867D9]
Track 5 accurately ripped (confidence 2) [06F194E3]
Track 6 accurately ripped (confidence 2) [256DD56B]
Track 7 accurately ripped (confidence 2) [2F2CAB95]

All tracks accurately ripped

End of status report

REM GENRE “Thrash Metal”
REM DATE 1993
REM DISCID 4F0CA008
REM COMMENT “ExactAudioCopy v0.99pb5”
PERFORMER “Metallica”
TITLE “15 Pieces Of Live Shit: Binge & Purge (Disc 1)”
FILE “Metallica – 15 Pieces Of Live Shit Binge & Purge (Disc 1).flac” WAVE
TRACK 01 AUDIO
TITLE “Enter Sandman (Mexico City)”
PERFORMER “Metallica”
INDEX 00 00:00:00
INDEX 01 00:00:32
TRACK 02 AUDIO
TITLE “Creeping Death (San Diego)”
PERFORMER “Metallica”
INDEX 00 05:41:32
INDEX 01 05:43:60
TRACK 03 AUDIO
TITLE “Harvester Of Sorrow (Mexico City)”
PERFORMER “Metallica”
INDEX 00 13:27:57
INDEX 01 13:29:60
TRACK 04 AUDIO
TITLE “Welcome Home (Sanitarium) (San Diego)”
PERFORMER “Metallica”
INDEX 00 20:27:62
INDEX 01 20:30:70
TRACK 05 AUDIO
TITLE “Sad But True (Mexico City)”
PERFORMER “Metallica”
INDEX 00 27:29:47
INDEX 01 27:31:15
TRACK 06 AUDIO
TITLE “Wherever I May Roam (San Diego)”
PERFORMER “Metallica”
INDEX 00 33:20:72
INDEX 01 33:24:42
TRACK 07 AUDIO
TITLE “The Unforgiven (San Diego)”
PERFORMER “Metallica”
INDEX 00 40:26:70
INDEX 01 40:29:42
TRACK 08 AUDIO
TITLE “The Thing That Should Not Be (Seattle)”
PERFORMER “Metallica”
INDEX 00 47:15:27
INDEX 01 47:18:20

REM GENRE “Thrash Metal”
REM DATE 1993
REM DISCID 5A0BC707
REM COMMENT “ExactAudioCopy v0.99pb5”
PERFORMER “Metallica”
TITLE “15 Pieces Of Live Shit: Binge & Purge (Disc 2)”
FILE “Metallica – 15 Pieces Of Live Shit Binge & Purge (Disc 2).flac” WAVE
TRACK 01 AUDIO
TITLE “Nothing Else Matters (Mexico City)”
PERFORMER “Metallica”
INDEX 00 00:00:00
INDEX 01 00:00:32
TRACK 02 AUDIO
TITLE “For Whom The Bell Tolls (Seattle)”
PERFORMER “Metallica”
INDEX 00 06:23:68
INDEX 01 06:26:05
TRACK 03 AUDIO
TITLE “Fade To Black (Seattle)”
PERFORMER “Metallica”
INDEX 00 12:07:13
INDEX 01 12:09:02
TRACK 04 AUDIO
TITLE “Master Of Puppets (Seattle)”
PERFORMER “Metallica”
INDEX 00 19:31:28
INDEX 01 19:33:22
TRACK 05 AUDIO
TITLE “Seek & Destroy (Seattle)”
PERFORMER “Metallica”
INDEX 00 28:37:35
INDEX 01 28:40:72
TRACK 06 AUDIO
TITLE “One (Mexico City)”
PERFORMER “Metallica”
INDEX 00 36:26:33
INDEX 01 36:28:47
TRACK 07 AUDIO
TITLE “Battery (San Diego)”
PERFORMER “Metallica”
INDEX 00 44:48:18
INDEX 01 44:51:07


Leave a Reply

Your email address will not be published. Required fields are marked *

This site uses Akismet to reduce spam. Learn how your comment data is processed.