Megadeth – So Far, So Good…So What! (Japanese Edition)




Artist: Megadeth
Year: 2013
Genre: Metal
Notes: Discogs
Add. Notes: Japanese Edition
Cover incl.: Yes
Encoder: FLAC
Bitrate: ~1000 kBit/s (44.1 kHz/16 Bit/s)
Log & Cue incl.: Yes
Size: 468,43 MB
Password: “slam” (without ” “)


All Downloads/Hosters are compatible

Download 1
Turbobit.net
Rapidgator.net
KatFile.com
UploadRar.com
Download 2
Turbobit.net
Rapidgator.net
KatFile.com
UploadRar.com

Tracklist:

1 - Into The Lungs Of Hell - 3:22
2 - Set The World Afire  - 5:48
3 - Anarchy In The U.K.  - 3:01
4 - Mary Jane  - 4:24
5 - 502  - 3:29
6 - In My Darkest Hour - 6:26
7 - Liar - 3:20
8 - Hook In Mouth - 4:40
Previously Unreleased Bonus Tracks
9 - Into The Lungs Of Hell (Paul Lani Mix)	3:31
10 - Set The World Afire (Paul Lani Mix)	5:51
11 - Mary Jane (Paul Lani Mix)  - 4:06
12 - In My Darkest Hour (Paul Lani Mix)  - 6:11

EAC-Log, CUE-Sheed & NFO:

Click to open spoiler
Exact Audio Copy V1.0 beta 3 from 29. August 2011

EAC extraction logfile from 24. August 2013, 19:17

Megadeth / So Far, So Good… So What [Toshiba, TOCP-95118, SHM-CD, Japan]

Used drive : PIONEER DVD-RW DVR-112D Adapter: 0 ID: 0

Read mode : Secure
Utilize accurate stream : Yes
Defeat audio cache : Yes
Make use of C2 pointers : No

Read offset correction : 48
Overread into Lead-In and Lead-Out : No
Fill up missing offset samples with silence : Yes
Delete leading and trailing silent blocks : No
Null samples used in CRC calculations : Yes
Used interface : Installed external ASPI interface

Used output format : User Defined Encoder
Selected bitrate : 1024 kBit/s
Quality : High
Add ID3 tag : No
Command line compressor : C:\Program Files\Exact Audio Copy\FLAC\FLAC.EXE
Additional command line options : -V -8 -T “Date=%year%” -T “Genre=%genre%” %source%

TOC of the extracted CD

Track | Start | Length | Start sector | End sector
———————————————————
1 | 0:00.00 | 3:22.65 | 0 | 15214
2 | 3:22.65 | 5:48.35 | 15215 | 41349
3 | 9:11.25 | 3:01.07 | 41350 | 54931
4 | 12:12.32 | 4:24.70 | 54932 | 74801
5 | 16:37.27 | 3:29.03 | 74802 | 90479
6 | 20:06.30 | 6:26.45 | 90480 | 119474
7 | 26:33.00 | 3:20.60 | 119475 | 134534
8 | 29:53.60 | 4:48.70 | 134535 | 156204
9 | 34:42.55 | 3:31.37 | 156205 | 172066
10 | 38:14.17 | 5:52.45 | 172067 | 198511
11 | 44:06.62 | 4:08.23 | 198512 | 217134
12 | 48:15.10 | 6:11.22 | 217135 | 244981

Range status and errors

Selected range

Filename C:\CDRip by Deminbek\Megadeth – So Far, So Good… So What [Toshiba, TOCP-95118, SHM-CD, Japan].wav

Peak level 100.0 %
Extraction speed 7.1 X
Range quality 100.0 %
Test CRC 0F7E6852
Copy CRC 0F7E6852
Copy OK

No errors occurred

AccurateRip summary

Track 1 cannot be verified as accurate (confidence 70) [747692D5], AccurateRip returned [7570FFE0] (AR v2)
Track 2 cannot be verified as accurate (confidence 68) [2518FC9F], AccurateRip returned [6843EBB1] (AR v2)
Track 3 cannot be verified as accurate (confidence 68) [2CFF45D9], AccurateRip returned [870A624B] (AR v2)
Track 4 cannot be verified as accurate (confidence 68) [88D1F696], AccurateRip returned [508DB4E1] (AR v2)
Track 5 cannot be verified as accurate (confidence 68) [162EB2BF], AccurateRip returned [C86F7052] (AR v2)
Track 6 cannot be verified as accurate (confidence 67) [C94DFEA4], AccurateRip returned [D36BB55A] (AR v2)
Track 7 cannot be verified as accurate (confidence 68) [B898172D], AccurateRip returned [D1DCD69A] (AR v2)
Track 8 cannot be verified as accurate (confidence 68) [B307AFD6], AccurateRip returned [0FCD02C5] (AR v2)
Track 9 cannot be verified as accurate (confidence 67) [AE37D52C], AccurateRip returned [406461D7] (AR v2)
Track 10 cannot be verified as accurate (confidence 67) [7ADA1FB3], AccurateRip returned [32FC8C07] (AR v2)
Track 11 cannot be verified as accurate (confidence 64) [F82E7E05], AccurateRip returned [6E4D1DE4] (AR v2)
Track 12 cannot be verified as accurate (confidence 66) [350912D4], AccurateRip returned [688CA102] (AR v2)

No tracks could be verified as accurate
You may have a different pressing from the one(s) in the database

End of status report

—- CUETools DB Plugin V2.1.3

[CTDB TOCID: z7Zv6O2mAmTYvGRw8FDQnFcfNAw-] found, Submit result: already submitted
[3a34b7a1] (119/123) Accurately ripped
[a07b788a] (001/123) No match
[23eb870b] (001/123) No match
[cbed4bef] (001/123) No match
[bb108ca8] (001/123) No match

==== Log checksum 2DC720E7D3D43687D77F8765FB36E11EBC5D73E42B4D91975BFFEA3415C117B2 ====

REM GENRE “Thrash Metal”
REM DATE 2013
REM DISCID C20CC20C
REM COMMENT “ExactAudioCopy v1.0b3”
PERFORMER “Megadeth”
TITLE “So Far, So Good… So What [Toshiba, TOCP-95118, SHM-CD, Japan]”
FILE “Megadeth – So Far, So Good… So What [Toshiba, TOCP-95118, SHM-CD, Japan].flac” WAVE
TRACK 01 AUDIO
TITLE “Into The Lungs Of Hell”
PERFORMER “Megadeth”
ISRC USCA20400601
INDEX 01 00:00:00
TRACK 02 AUDIO
TITLE “Set The World Afire”
PERFORMER “Megadeth”
ISRC USCA20400602
INDEX 01 03:22:65
TRACK 03 AUDIO
TITLE “Anarchy In The U.K.”
PERFORMER “Megadeth”
ISRC USCA20400604
INDEX 01 09:11:25
TRACK 04 AUDIO
TITLE “Mary Jane”
PERFORMER “Megadeth”
ISRC USCA20400605
INDEX 01 12:12:32
TRACK 05 AUDIO
TITLE “502”
PERFORMER “Megadeth”
ISRC USCA20400606
INDEX 01 16:37:27
TRACK 06 AUDIO
TITLE “In My Darkest Hour”
PERFORMER “Megadeth”
ISRC USCA20400607
INDEX 01 20:06:30
TRACK 07 AUDIO
TITLE “Liar”
PERFORMER “Megadeth”
ISRC USCA20400608
INDEX 01 26:33:00
TRACK 08 AUDIO
TITLE “Hook In Mouth”
PERFORMER “Megadeth”
ISRC USCA20400609
INDEX 01 29:53:60
TRACK 09 AUDIO
TITLE “Into The Lungs Of Hell (Paul Lani mix)”
PERFORMER “Megadeth”
ISRC USCA20400610
INDEX 00 34:33:62
INDEX 01 34:42:55
TRACK 10 AUDIO
TITLE “Set The World Afire (Paul Lani mix)”
PERFORMER “Megadeth”
ISRC USCA20400611
INDEX 01 38:14:17
TRACK 11 AUDIO
TITLE “Mary Jane (Paul Lani mix)”
PERFORMER “Megadeth”
ISRC USCA20400612
INDEX 00 44:05:55
INDEX 01 44:06:62
TRACK 12 AUDIO
TITLE “In My Darkest Hour (Paul Lani mix)”
PERFORMER “Megadeth”
ISRC USCA20400613
INDEX 00 48:13:47
INDEX 01 48:15:10


Leave a Reply

Your email address will not be published. Required fields are marked *

Enter the text from the image below
 

This site uses Akismet to reduce spam. Learn how your comment data is processed.