Megadeth – Rust In Peace (Japanese Edition)




Artist: Megadeth
Year: 1990/2013
Genre: Metal
Notes: Discogs
Add. Notes: Japanese Edition
Cover incl.: Yes
Encoder: FLAC
Bitrate: ~1200 kBit/s (44.1 kHz/16 Bit/s)
Log & Cue incl.: Yes
Size: 539,34 MB
Password: “slam” (without ” “)


All Downloads/Hosters are compatible

Download 1
Turbobit.net
Rapidgator.net
KatFile.com
UploadRar.com
Download 2
Turbobit.net
Rapidgator.net
KatFile.com
UploadRar.com

Tracklist:

1 - Holy Wars...The Punishment Due - 6:32
2 - Hangar 18 - 5:11
3 - Take No Prisoners - 3:27
4 - Five Magics - 5:39
5 - Poison Was The Cure - 2:56
6 - Lucretia - 3:56
7 - Tornado Of Souls - 5:19
8 - Dawn Patrol - 1:51
9 - Rust In Peace...Polaris - 5:36
Previously Unreleased Bonus Tracks
10 - My Creation - 1:36
11 - Rust In Peace...Polaris (Demo) - 5:25
12 - Holy Wars...The Punishment Due (Demo) - 6:16
13 - Take No Prisoners (Demo) - 3:23

EAC-Log, CUE-Sheed & NFO:

Click to open spoiler
Exact Audio Copy V1.0 beta 3 from 29. August 2011

EAC extraction logfile from 24. August 2013, 19:57

Megadeth / Rust In Peace [Toshiba, TOCP-95119, SHM-CD, Japan]

Used drive : PIONEER DVD-RW DVR-112D Adapter: 0 ID: 0

Read mode : Secure
Utilize accurate stream : Yes
Defeat audio cache : Yes
Make use of C2 pointers : No

Read offset correction : 48
Overread into Lead-In and Lead-Out : No
Fill up missing offset samples with silence : Yes
Delete leading and trailing silent blocks : No
Null samples used in CRC calculations : Yes
Used interface : Installed external ASPI interface

Used output format : User Defined Encoder
Selected bitrate : 1024 kBit/s
Quality : High
Add ID3 tag : No
Command line compressor : C:\Program Files\Exact Audio Copy\FLAC\FLAC.EXE
Additional command line options : -V -8 -T “Date=%year%” -T “Genre=%genre%” %source%

TOC of the extracted CD

Track | Start | Length | Start sector | End sector
———————————————————
1 | 0:00.00 | 6:32.45 | 0 | 29444
2 | 6:32.45 | 5:11.15 | 29445 | 52784
3 | 11:43.60 | 3:27.05 | 52785 | 68314
4 | 15:10.65 | 5:39.52 | 68315 | 93791
5 | 20:50.42 | 2:56.60 | 93792 | 107051
6 | 23:47.27 | 3:56.00 | 107052 | 124751
7 | 27:43.27 | 5:19.20 | 124752 | 148696
8 | 33:02.47 | 1:51.60 | 148697 | 157081
9 | 34:54.32 | 5:44.05 | 157082 | 182886
10 | 40:38.37 | 1:36.50 | 182887 | 190136
11 | 42:15.12 | 5:25.50 | 190137 | 214561
12 | 47:40.62 | 6:16.48 | 214562 | 242809
13 | 53:57.35 | 3:23.37 | 242810 | 258071

Range status and errors

Selected range

Filename C:\CDRip by Deminbek\Megadeth – Rust In Peace [Toshiba, TOCP-95119, SHM-CD, Japan].wav

Peak level 98.8 %
Extraction speed 7.2 X
Range quality 100.0 %
Test CRC CBC64F28
Copy CRC CBC64F28
Copy OK

No errors occurred

AccurateRip summary

Track 1 cannot be verified as accurate (confidence 138) [2E255031], AccurateRip returned [5DF04166] (AR v2)
Track 2 cannot be verified as accurate (confidence 139) [AFF6F502], AccurateRip returned [22C8EC3A] (AR v2)
Track 3 cannot be verified as accurate (confidence 79) [94CFFDD1], AccurateRip returned [73E7EE51] (AR v2)
Track 4 cannot be verified as accurate (confidence 138) [B5BD0784], AccurateRip returned [505281B8] (AR v2)
Track 5 cannot be verified as accurate (confidence 139) [6C8C0576], AccurateRip returned [5EECE473] (AR v2)
Track 6 cannot be verified as accurate (confidence 138) [8F5936A2], AccurateRip returned [7C599FB9] (AR v2)
Track 7 cannot be verified as accurate (confidence 138) [AD1AEB30], AccurateRip returned [307296C2] (AR v2)
Track 8 cannot be verified as accurate (confidence 139) [C9E9AC84], AccurateRip returned [6E42DA38] (AR v2)
Track 9 cannot be verified as accurate (confidence 135) [4E491FB1], AccurateRip returned [8FCB02EB] (AR v2)
Track 10 cannot be verified as accurate (confidence 138) [CA367AD9], AccurateRip returned [BD4300A6] (AR v2)
Track 11 cannot be verified as accurate (confidence 136) [2147253A], AccurateRip returned [23D2C666] (AR v2)
Track 12 cannot be verified as accurate (confidence 132) [4A97C3DB], AccurateRip returned [F6B5DC66] (AR v2)
Track 13 cannot be verified as accurate (confidence 131) [8C210977], AccurateRip returned [C607278E] (AR v2)

No tracks could be verified as accurate
You may have a different pressing from the one(s) in the database

End of status report

—- CUETools DB Plugin V2.1.3

[CTDB TOCID: NA._urQWVw1jLJZyEdjd3sEl4s4-] found, Submit result: NA._urQWVw1jLJZyEdjd3sEl4s4- has been confirmed
[366e4e4b] (151/292) Accurately ripped
[ee821e73] (004/292) No match
[e5eb5e6c] (136/292) No match
[da503ed9] (001/292) No match

==== Log checksum 5805444D6FD786212BD5C911B310477309711BF1C9EF4D1C9D2F15B8C4479A4D ====

REM GENRE “Thrash Metal”
REM DATE 2013
REM DISCID BB0D700D
REM COMMENT “ExactAudioCopy v1.0b3”
PERFORMER “Megadeth”
TITLE “Rust In Peace [Toshiba, TOCP-95119, SHM-CD, Japan]”
FILE “Megadeth – Rust In Peace [Toshiba, TOCP-95119, SHM-CD, Japan].flac” WAVE
TRACK 01 AUDIO
TITLE “Holy Wars… The Punishment Due”
PERFORMER “Megadeth”
ISRC USCA20400647
INDEX 01 00:00:00
TRACK 02 AUDIO
TITLE “Hangar 18”
PERFORMER “Megadeth”
ISRC USCA20400648
INDEX 01 06:32:45
TRACK 03 AUDIO
TITLE “Take No Prisoners”
PERFORMER “Megadeth”
ISRC USCA20400649
INDEX 01 11:43:60
TRACK 04 AUDIO
TITLE “Five Magics”
PERFORMER “Megadeth”
ISRC USCA20400650
INDEX 01 15:10:65
TRACK 05 AUDIO
TITLE “Poison Was The Cure”
PERFORMER “Megadeth”
ISRC USCA20400651
INDEX 01 20:50:42
TRACK 06 AUDIO
TITLE “Lucretia”
PERFORMER “Megadeth”
ISRC USCA20400652
INDEX 01 23:47:27
TRACK 07 AUDIO
TITLE “Tornado Of Souls”
PERFORMER “Megadeth”
ISRC USCA20400653
INDEX 01 27:43:27
TRACK 08 AUDIO
TITLE “Dawn Patrol”
PERFORMER “Megadeth”
ISRC USCA20400655
INDEX 01 33:02:47
TRACK 09 AUDIO
TITLE “Rust in Peace… Polaris”
PERFORMER “Megadeth”
ISRC USCA20400656
INDEX 01 34:54:32
TRACK 10 AUDIO
TITLE “My Creation”
PERFORMER “Megadeth”
ISRC USCA20400660
INDEX 00 40:30:70
INDEX 01 40:38:37
TRACK 11 AUDIO
TITLE “Rust In Peace… Polaris (Demo)”
PERFORMER “Megadeth”
ISRC USCA20400661
INDEX 01 42:15:12
TRACK 12 AUDIO
TITLE “Holy Wars… The Punishment Due (Demo)”
PERFORMER “Megadeth”
ISRC USCA20400663
INDEX 01 47:40:62
TRACK 13 AUDIO
TITLE “Take No Prisoners (Demo)”
PERFORMER “Megadeth”
ISRC USCA20400665
INDEX 01 53:57:35


Leave a Reply

Your email address will not be published. Required fields are marked *

Enter the text from the image below
 

This site uses Akismet to reduce spam. Learn how your comment data is processed.