Megadeth – Risk (Remastered Japanese Edition)




[Total: 0    Average: 0/5]

Artist: Megadeth
Year: 1999/2013
Genre: Metal
Notes: Discogs
Add. Notes: Remastered Japanese Edition
Cover incl.: Yes
Encoder: FLAC
Bitrate: ~1000 kBit/s (44.1 kHz/16 Bit/s)
Log & Cue incl.: Yes
Size: 612,58 MB
Password: “slam” (without ” “)


All Downloads/Hosters are compatible

Download 1
Share-online.biz
KatFile.com
Rapidgator.net
NitroFlare.com
Download 2
Share-online.biz
KatFile.com
Rapidgator.net
NitroFlare.com

Tracklist:

1 - Insomnia - 4:15
2 - Prince Of Darkness - 6:26
3 - Enter The Arena - 0:43
4 - Crush 'Em - 4:54
5 - Breadline - 4:32
6 - The Doctor Is Calling - 5:44
7 - I'll Be There - 5:13
8 - Wanderlust - 5:48
9 - Ecstasy - 4:31
10 - Seven - 4:46
11 - Time: The Beginning - 3:10
12 - Time: The End - 2:41
Previously Unreleased Bonus Tracks
13 - Insomnia (Jeff Balding Mix) - 4:19
14 - Breadline (Jack Joseph Puig Mix) - 4:28
15 - Crush 'Em (Jock Mix) - 5:10

EAC-Log, CUE-Sheed & NFO:

Click to open spoiler
Exact Audio Copy V1.0 beta 3 from 29. August 2011

EAC extraction logfile from 24. August 2013, 20:58

Megadeth / Risc [Toshiba, TOCP-95123, SHM-CD, Japan]

Used drive : PIONEER DVD-RW DVR-112D Adapter: 0 ID: 0

Read mode : Secure
Utilize accurate stream : Yes
Defeat audio cache : Yes
Make use of C2 pointers : No

Read offset correction : 48
Overread into Lead-In and Lead-Out : No
Fill up missing offset samples with silence : Yes
Delete leading and trailing silent blocks : No
Null samples used in CRC calculations : Yes
Used interface : Installed external ASPI interface

Used output format : User Defined Encoder
Selected bitrate : 1024 kBit/s
Quality : High
Add ID3 tag : No
Command line compressor : C:\Program Files\Exact Audio Copy\FLAC\FLAC.EXE
Additional command line options : -V -8 -T “Date=%year%” -T “Genre=%genre%” %source%

TOC of the extracted CD

Track | Start | Length | Start sector | End sector
———————————————————
1 | 0:00.00 | 4:15.72 | 0 | 19196
2 | 4:15.72 | 6:26.70 | 19197 | 48216
3 | 10:42.67 | 0:43.60 | 48217 | 51501
4 | 11:26.52 | 4:54.15 | 51502 | 73566
5 | 16:20.67 | 4:32.20 | 73567 | 93986
6 | 20:53.12 | 5:44.35 | 93987 | 119821
7 | 26:37.47 | 5:13.35 | 119822 | 143331
8 | 31:51.07 | 5:48.33 | 143332 | 169464
9 | 37:39.40 | 4:31.05 | 169465 | 189794
10 | 42:10.45 | 4:46.30 | 189795 | 211274
11 | 46:57.00 | 3:10.60 | 211275 | 225584
12 | 50:07.60 | 2:41.17 | 225585 | 237676
13 | 52:49.02 | 4:19.55 | 237677 | 257156
14 | 57:08.57 | 4:28.40 | 257157 | 277296
15 | 61:37.22 | 5:10.25 | 277297 | 300571

Range status and errors

Selected range

Filename C:\CDRip by Deminbek\Megadeth – Risc [Toshiba, TOCP-95123, SHM-CD, Japan].wav

Peak level 98.8 %
Extraction speed 8.1 X
Range quality 100.0 %
Test CRC C34B3CE8
Copy CRC C34B3CE8
Copy OK

No errors occurred

AccurateRip summary

Track 1 accurately ripped (confidence 2) [40CDE900] (AR v2)
Track 2 accurately ripped (confidence 2) [7CF614B9] (AR v2)
Track 3 accurately ripped (confidence 2) [4E899AE0] (AR v2)
Track 4 accurately ripped (confidence 2) [735A89B9] (AR v2)
Track 5 accurately ripped (confidence 2) [11478D58] (AR v2)
Track 6 accurately ripped (confidence 2) [6CA84337] (AR v2)
Track 7 accurately ripped (confidence 2) [888B8C8C] (AR v2)
Track 8 accurately ripped (confidence 2) [BE08FDF6] (AR v2)
Track 9 accurately ripped (confidence 2) [7BDA2367] (AR v2)
Track 10 accurately ripped (confidence 2) [4B99365C] (AR v2)
Track 11 accurately ripped (confidence 2) [5CFF462F] (AR v2)
Track 12 accurately ripped (confidence 2) [96681CCB] (AR v2)
Track 13 accurately ripped (confidence 2) [92B0935D] (AR v2)
Track 14 accurately ripped (confidence 2) [E2739880] (AR v2)
Track 15 accurately ripped (confidence 2) [AF90AB8B] (AR v2)

All tracks accurately ripped

End of status report

—- CUETools DB Plugin V2.1.3

[CTDB TOCID: PLcGmRcdomW.ODaEnT7XVsV90jA-] found, Submit result: PLcGmRcdomW.ODaEnT7XVsV90jA- has been confirmed
[71f3de7a] (57/64) Accurately ripped
[dbc6a7d1] (06/64) No match
[6b9594b6] (01/64) No match

==== Log checksum C09F9759DA1E4F98158553486BAFE92A12CC3D6E7293334643FC29ECEBAF657A ====

REM GENRE “Heavy Metal”
REM DATE 2013
REM DISCID E20FA70F
REM COMMENT “ExactAudioCopy v1.0b3”
PERFORMER “Megadeth”
TITLE “Risc [Toshiba, TOCP-95123, SHM-CD, Japan]”
FILE “Megadeth – Risc [Toshiba, TOCP-95123, SHM-CD, Japan].flac” WAVE
TRACK 01 AUDIO
TITLE “Insomnia”
PERFORMER “Megadeth”
ISRC USCA20400598
INDEX 01 00:00:00
TRACK 02 AUDIO
TITLE “Prince of Darkness”
PERFORMER “Megadeth”
ISRC USCA20400599
INDEX 01 04:15:72
TRACK 03 AUDIO
TITLE “Enter the Arena”
PERFORMER “Megadeth”
ISRC USCA20400600
INDEX 01 10:42:67
TRACK 04 AUDIO
TITLE “Crush ’em”
PERFORMER “Megadeth”
ISRC USCA20400603
INDEX 01 11:26:52
TRACK 05 AUDIO
TITLE “Breadline”
PERFORMER “Megadeth”
ISRC USCA20400618
INDEX 01 16:20:67
TRACK 06 AUDIO
TITLE “The Doctor Is Calling”
PERFORMER “Megadeth”
ISRC USCA20400621
INDEX 01 20:53:12
TRACK 07 AUDIO
TITLE “I’ll Be There”
PERFORMER “Megadeth”
ISRC USCA20400625
INDEX 01 26:37:47
TRACK 08 AUDIO
TITLE “Wanderlust”
PERFORMER “Megadeth”
ISRC USCA20400628
INDEX 01 31:51:07
TRACK 09 AUDIO
TITLE “Ecstasy”
PERFORMER “Megadeth”
ISRC USCA20400630
INDEX 01 37:39:40
TRACK 10 AUDIO
TITLE “Seven”
PERFORMER “Megadeth”
ISRC USCA20400631
INDEX 01 42:10:45
TRACK 11 AUDIO
TITLE “Time: The Beginning”
PERFORMER “Megadeth”
ISRC USCA20400635
INDEX 01 46:57:00
TRACK 12 AUDIO
TITLE “Time: The End”
PERFORMER “Megadeth”
ISRC USCA20400639
INDEX 01 50:07:60
TRACK 13 AUDIO
TITLE “Insomnia (Jeff Balding mix)”
PERFORMER “Megadeth”
ISRC USCA20400641
INDEX 01 52:49:02
TRACK 14 AUDIO
TITLE “Breadline (Jack Joseph Puig mix)”
PERFORMER “Megadeth”
ISRC USCA20400643
INDEX 01 57:08:57
TRACK 15 AUDIO
TITLE “Crush ’em (Jock mix)”
PERFORMER “Megadeth”
ISRC USCA20400646
INDEX 01 61:37:22


Spread the Download

Leave a Reply

Your email address will not be published. Required fields are marked *

Enter the text from the image below
 

This site uses Akismet to reduce spam. Learn how your comment data is processed.