Megadeth – Peace Sells… But Who’s Buying? (Japanese Edition)




Artist: Megadeth
Year: 2013
Genre: Metal
Notes: Discogs
Add. Notes: Japanese Edition
Cover incl.: Yes
Encoder: FLAC
Bitrate: ~1000 kBit/s (44.1 kHz/16 Bit/s)
Log & Cue incl.: Yes
Size: 493,96 MB
Password: “slam” (without ” “)


All Downloads/Hosters are compatible

Download 1
Turbobit.net
Rapidgator.net
KatFile.com
UploadRar.com
Download 2
Turbobit.net
Rapidgator.net
KatFile.com
UploadRar.com

Tracklist:

1 - Wake Up Dead - 3:37
2 - The Conjuring - 5:02
3 - Peace Sells - 4:02
4 - Devils Island - 5:05
5 - Good Mourning / Black Friday - 6:39
6 - Bad Omen - 4:03
7 - I Ain't Superstitious - 2:45
8 - My Last Words - 4:47
Previously Unreleased Bonus Tracks
9 - Wake Up Dead (Randy Burns Mix) - 3:40
10 - The Conjuring (Randy Burns Mix) - 5:01
11 - Peace Sells (Randy Burns Mix) - 4:00
12 - Good Mourning / Black Friday (Randy Burns Mix) - 
6:39

EAC-Log, CUE-Sheed & NFO:

Click to open spoiler
Exact Audio Copy V1.0 beta 3 from 29. August 2011

EAC extraction logfile from 24. August 2013, 21:23

Megadeth / Peace Sells…But Who’s Buying [Toshiba, TOCP-95117, SHM-CD, Japan]

Used drive : PIONEER DVD-RW DVR-112D Adapter: 0 ID: 0

Read mode : Secure
Utilize accurate stream : Yes
Defeat audio cache : Yes
Make use of C2 pointers : No

Read offset correction : 48
Overread into Lead-In and Lead-Out : No
Fill up missing offset samples with silence : Yes
Delete leading and trailing silent blocks : No
Null samples used in CRC calculations : Yes
Used interface : Installed external ASPI interface

Used output format : User Defined Encoder
Selected bitrate : 1024 kBit/s
Quality : High
Add ID3 tag : No
Command line compressor : C:\Program Files\Exact Audio Copy\FLAC\FLAC.EXE
Additional command line options : -V -8 -T “Date=%year%” -T “Genre=%genre%” %source%

TOC of the extracted CD

Track | Start | Length | Start sector | End sector
———————————————————
1 | 0:00.00 | 3:37.25 | 0 | 16299
2 | 3:37.25 | 5:02.25 | 16300 | 38974
3 | 8:39.50 | 4:02.32 | 38975 | 57156
4 | 12:42.07 | 5:05.15 | 57157 | 80046
5 | 17:47.22 | 6:39.58 | 80047 | 110029
6 | 24:27.05 | 4:03.32 | 110030 | 128286
7 | 28:30.37 | 2:45.20 | 128287 | 140681
8 | 31:15.57 | 4:55.25 | 140682 | 162831
9 | 36:11.07 | 3:40.13 | 162832 | 179344
10 | 39:51.20 | 5:01.72 | 179345 | 201991
11 | 44:53.17 | 4:00.33 | 201992 | 220024
12 | 48:53.50 | 6:39.40 | 220025 | 249989

Range status and errors

Selected range

Filename C:\CDRip by Deminbek\Megadeth – Peace Sells…But Who’s Buying [Toshiba, TOCP-95117, SHM-CD, Japan].wav

Peak level 100.0 %
Extraction speed 7.2 X
Range quality 100.0 %
Test CRC F5DDED28
Copy CRC F5DDED28
Copy OK

No errors occurred

AccurateRip summary

Track 1 cannot be verified as accurate (confidence 54) [9758BCE5], AccurateRip returned [09D81EB7] (AR v2)
Track 2 cannot be verified as accurate (confidence 54) [14CEC240], AccurateRip returned [4B506639] (AR v2)
Track 3 cannot be verified as accurate (confidence 54) [B97579E7], AccurateRip returned [C950B842] (AR v2)
Track 4 cannot be verified as accurate (confidence 53) [E7B48294], AccurateRip returned [EBBAF332] (AR v2)
Track 5 cannot be verified as accurate (confidence 52) [AA19B1CB], AccurateRip returned [D3EC6972] (AR v2)
Track 6 cannot be verified as accurate (confidence 52) [A50F7A75], AccurateRip returned [651ACA8E] (AR v2)
Track 7 cannot be verified as accurate (confidence 51) [CC3E434F], AccurateRip returned [C928A437] (AR v2)
Track 8 cannot be verified as accurate (confidence 51) [DBFB656A], AccurateRip returned [6597BA75] (AR v2)
Track 9 cannot be verified as accurate (confidence 52) [4E93A9BD], AccurateRip returned [E2F56500] (AR v2)
Track 10 cannot be verified as accurate (confidence 51) [40BC6F88], AccurateRip returned [8AF4D131] (AR v2)
Track 11 cannot be verified as accurate (confidence 51) [94E01374], AccurateRip returned [0B3429FC] (AR v2)
Track 12 cannot be verified as accurate (confidence 51) [2AF77605], AccurateRip returned [7F4376F2] (AR v2)

No tracks could be verified as accurate
You may have a different pressing from the one(s) in the database

End of status report

—- CUETools DB Plugin V2.1.3

[CTDB TOCID: xQcpjtcBhjM1DiSD.SlDmd00F30-] found, Submit result: already submitted
[ba2db12e] (086/112) Accurately ripped
[da5b105c] (024/112) No match
[c1244677] (001/112) No match
[5c99690d] (001/112) No match

==== Log checksum 63D3BA534D4E87305DFEA8CFBC990FB39961A5F485AC6CF6289865F0CEF1AEE3 ====

REM GENRE “Thrash Metal”
REM DATE 2013
REM DISCID B40D050C
REM COMMENT “ExactAudioCopy v1.0b3”
PERFORMER “Megadeth”
TITLE “Peace Sells…But Who’s Buying [Toshiba, TOCP-95117, SHM-CD, Japan]”
FILE “Megadeth – Peace Sells…But Who’s Buying [Toshiba, TOCP-95117, SHM-CD, Japan].flac” WAVE
TRACK 01 AUDIO
TITLE “Wake Up Dead”
PERFORMER “Megadeth”
ISRC USCA20400654
INDEX 01 00:00:00
TRACK 02 AUDIO
TITLE “The Conjuring”
PERFORMER “Megadeth”
ISRC USCA20400657
INDEX 01 03:37:25
TRACK 03 AUDIO
TITLE “Peace Sells”
PERFORMER “Megadeth”
ISRC USCA20400658
INDEX 01 08:39:50
TRACK 04 AUDIO
TITLE “Devil’s Island”
PERFORMER “Megadeth”
ISRC USCA20400659
INDEX 01 12:42:07
TRACK 05 AUDIO
TITLE “Good Mourning / Black Friday”
PERFORMER “Megadeth”
ISRC USCA20400662
INDEX 01 17:47:22
TRACK 06 AUDIO
TITLE “Bad Omen”
PERFORMER “Megadeth”
ISRC USCA20400664
INDEX 01 24:27:05
TRACK 07 AUDIO
TITLE “I Ain’t Superstitious”
PERFORMER “Megadeth”
ISRC USCA20400666
INDEX 01 28:30:37
TRACK 08 AUDIO
TITLE “My Last Words”
PERFORMER “Megadeth”
ISRC USCA20400667
INDEX 01 31:15:57
TRACK 09 AUDIO
TITLE “Wake Up Dead (Randy Burns mix)”
PERFORMER “Megadeth”
ISRC USCA20400668
INDEX 00 36:03:07
INDEX 01 36:11:07
TRACK 10 AUDIO
TITLE “The Conjuring (Randy Burns mix)”
PERFORMER “Megadeth”
ISRC USCA20400669
INDEX 01 39:51:20
TRACK 11 AUDIO
TITLE “Peace Sells (Randy Burns mix)”
PERFORMER “Megadeth”
ISRC USCA20400670
INDEX 01 44:53:17
TRACK 12 AUDIO
TITLE “Good Mourning / Black Friday (Randy Burns mix)”
PERFORMER “Megadeth”
ISRC USCA20400671
INDEX 01 48:53:50


Leave a Reply

Your email address will not be published. Required fields are marked *

This site uses Akismet to reduce spam. Learn how your comment data is processed.