Megadeth – Cryptic Writings (Remastered Japanese Edition)




[Total: 0    Average: 0/5]

Artist: Megadeth
Year: 1997/2013
Genre: Metal
Notes: Discogs
Add. Notes: Remastered Japanese Edition
Cover incl.: Yes
Encoder: FLAC
Bitrate: ~1000 kBit/s (44.1 kHz/16 Bit/s)
Log & Cue incl.: Yes
Size: 563,94 MB
Password: “slam” (without ” “)


All Downloads/Hosters are compatible

Download 1
Share-online.biz
KatFile.com
Rapidgator.net
Download 2
Share-online.biz
KatFile.com
Rapidgator.net

Tracklist:

1 - Trust - 5:11
2 - Almost Honest - 4:08
3 - Use The Man - 4:03
4 - Mastermind - 3:48
5 - The Disintegrators - 3:04
6 - I'll Get Even - 4:19
7 - Sin - 3:05
8 - A Secret Place - 5:24
9 - Have Cool, Will Travel - 3:40
10 - She-Wolf - 3:37
11 - Vortex - 3:23
12 - FFF - 2:37
Previously Unreleased Bonus Tracks
13 - Trust (Spanish Version) - 5:12
14 - Evil That's Within - 3:22
15 - Vortex (Alternate Version) - 3:30
16 - Bullprick - 2:47

EAC-Log, CUE-Sheed & NFO:

Click to open spoiler
Exact Audio Copy V1.0 beta 3 from 29. August 2011

EAC extraction logfile from 24. August 2013, 20:38

Megadeth / Cryptic Writings [Toshiba, TOCP-95122, SHM-CD, Japan]

Used drive : PIONEER DVD-RW DVR-112D Adapter: 0 ID: 0

Read mode : Secure
Utilize accurate stream : Yes
Defeat audio cache : Yes
Make use of C2 pointers : No

Read offset correction : 48
Overread into Lead-In and Lead-Out : No
Fill up missing offset samples with silence : Yes
Delete leading and trailing silent blocks : No
Null samples used in CRC calculations : Yes
Used interface : Installed external ASPI interface

Used output format : User Defined Encoder
Selected bitrate : 1024 kBit/s
Quality : High
Add ID3 tag : No
Command line compressor : C:\Program Files\Exact Audio Copy\FLAC\FLAC.EXE
Additional command line options : -V -8 -T “Date=%year%” -T “Genre=%genre%” %source%

TOC of the extracted CD

Track | Start | Length | Start sector | End sector
———————————————————
1 | 0:00.00 | 5:11.40 | 0 | 23364
2 | 5:11.40 | 4:08.42 | 23365 | 42006
3 | 9:20.07 | 4:03.55 | 42007 | 60286
4 | 13:23.62 | 3:48.05 | 60287 | 77391
5 | 17:11.67 | 3:04.38 | 77392 | 91229
6 | 20:16.30 | 4:19.27 | 91230 | 110681
7 | 24:35.57 | 3:05.73 | 110682 | 124629
8 | 27:41.55 | 5:24.60 | 124630 | 148989
9 | 33:06.40 | 3:40.15 | 148990 | 165504
10 | 36:46.55 | 3:37.60 | 165505 | 181839
11 | 40:24.40 | 3:23.07 | 181840 | 197071
12 | 43:47.47 | 2:47.18 | 197072 | 209614
13 | 46:34.65 | 5:12.30 | 209615 | 233044
14 | 51:47.20 | 3:22.27 | 233045 | 248221
15 | 55:09.47 | 3:30.38 | 248222 | 264009
16 | 58:40.10 | 2:47.17 | 264010 | 276551

Range status and errors

Selected range

Filename C:\CDRip by Deminbek\Megadeth – Cryptic Writings [Toshiba, TOCP-95122, SHM-CD, Japan].wav

Peak level 98.8 %
Extraction speed 7.3 X
Range quality 100.0 %
Test CRC 8B666863
Copy CRC 8B666863
Copy OK

No errors occurred

AccurateRip summary

Track 1 cannot be verified as accurate (confidence 29) [2622D4B2], AccurateRip returned [9688EF45] (AR v2)
Track 2 cannot be verified as accurate (confidence 30) [AF02C6F2], AccurateRip returned [2633FF68] (AR v2)
Track 3 cannot be verified as accurate (confidence 30) [60D5D854], AccurateRip returned [9F01EE71] (AR v2)
Track 4 cannot be verified as accurate (confidence 30) [24946EDE], AccurateRip returned [F0DABE69] (AR v2)
Track 5 cannot be verified as accurate (confidence 30) [85B658CF], AccurateRip returned [ED1B8476] (AR v2)
Track 6 cannot be verified as accurate (confidence 30) [2FA0D417], AccurateRip returned [BF2542EF] (AR v2)
Track 7 cannot be verified as accurate (confidence 30) [AE5C62D9], AccurateRip returned [12316AB1] (AR v2)
Track 8 cannot be verified as accurate (confidence 29) [07A48CEB], AccurateRip returned [69195962] (AR v2)
Track 9 cannot be verified as accurate (confidence 30) [539715E4], AccurateRip returned [669E1571] (AR v2)
Track 10 cannot be verified as accurate (confidence 30) [F8DD3495], AccurateRip returned [11A5B42E] (AR v2)
Track 11 cannot be verified as accurate (confidence 29) [BC4C8830], AccurateRip returned [A427C2E1] (AR v2)
Track 12 cannot be verified as accurate (confidence 30) [AC0FE130], AccurateRip returned [51473D3F] (AR v2)
Track 13 cannot be verified as accurate (confidence 29) [7D6CCB6E], AccurateRip returned [7EB2175D] (AR v2)
Track 14 cannot be verified as accurate (confidence 29) [709FD85F], AccurateRip returned [FE834F51] (AR v2)
Track 15 cannot be verified as accurate (confidence 30) [F7819994], AccurateRip returned [0C88577C] (AR v2)
Track 16 cannot be verified as accurate (confidence 29) [9756BC43], AccurateRip returned [8473D267] (AR v2)

No tracks could be verified as accurate
You may have a different pressing from the one(s) in the database

End of status report

—- CUETools DB Plugin V2.1.3

[CTDB TOCID: fWvEk82fchNTK49yOrUEyz04VBs-] found, Submit result: fWvEk82fchNTK49yOrUEyz04VBs- has been confirmed
[98a4bd3c] (05/67) Differs in 159 samples @05:52:41,08:52:29-08:52:30
[55fb3b95] (52/67) Accurately ripped
[ad839871] (09/67) No match
[c644c033] (01/67) No match
You can use CUETools to repair this rip.

==== Log checksum 8F06D545E67B89E6F8DB3C43E9A7CD2CC19B2D4C9738C71CF7EB2FF425CAF046 ====

REM GENRE “Heavy Metal”
REM DATE 2013
REM DISCID D90E6710
REM COMMENT “ExactAudioCopy v1.0b3”
PERFORMER “Megadeth”
TITLE “Cryptic Writings [Toshiba, TOCP-95122, SHM-CD, Japan]”
FILE “Megadeth – Cryptic Writings [Toshiba, TOCP-95122, SHM-CD, Japan].flac” WAVE
TRACK 01 AUDIO
TITLE “Trust”
PERFORMER “Megadeth”
ISRC USCA20400552
INDEX 01 00:00:00
TRACK 02 AUDIO
TITLE “Almost Honest”
PERFORMER “Megadeth”
ISRC USCA20400577
INDEX 01 05:11:40
TRACK 03 AUDIO
TITLE “Use the Man”
PERFORMER “Megadeth”
ISRC USCA20400580
INDEX 01 09:20:07
TRACK 04 AUDIO
TITLE “Mastermind”
PERFORMER “Megadeth”
ISRC USCA20400581
INDEX 01 13:23:62
TRACK 05 AUDIO
TITLE “The Disintegrators”
PERFORMER “Megadeth”
ISRC USCA20400582
INDEX 01 17:11:67
TRACK 06 AUDIO
TITLE “I’ll Get Even”
PERFORMER “Megadeth”
ISRC USCA20400583
INDEX 01 20:16:30
TRACK 07 AUDIO
TITLE “Sin”
PERFORMER “Megadeth”
ISRC USCA20400584
INDEX 01 24:35:57
TRACK 08 AUDIO
TITLE “A Secret Place”
PERFORMER “Megadeth”
ISRC USCA20400585
INDEX 01 27:41:55
TRACK 09 AUDIO
TITLE “Have Cool, Will Travel”
PERFORMER “Megadeth”
ISRC USCA20400586
INDEX 01 33:06:40
TRACK 10 AUDIO
TITLE “She-Wolf”
PERFORMER “Megadeth”
ISRC USCA20400587
INDEX 01 36:46:55
TRACK 11 AUDIO
TITLE “Vortex”
PERFORMER “Megadeth”
ISRC USCA20400588
INDEX 01 40:24:40
TRACK 12 AUDIO
TITLE “FFF”
PERFORMER “Megadeth”
ISRC USCA20400589
INDEX 01 43:47:47
TRACK 13 AUDIO
TITLE “Trust (Spanish version)”
PERFORMER “Megadeth”
ISRC USCA20400590
INDEX 00 46:25:25
INDEX 01 46:34:65
TRACK 14 AUDIO
TITLE “Evil That’s Within”
PERFORMER “Megadeth”
ISRC USCA20400593
INDEX 01 51:47:20
TRACK 15 AUDIO
TITLE “Vortex (alternate version)”
PERFORMER “Megadeth”
ISRC USCA20400591
INDEX 01 55:09:47
TRACK 16 AUDIO
TITLE “Bullprick”
PERFORMER “Megadeth”
ISRC USCA20400592
INDEX 01 58:40:10


Spread the Download

Leave a Reply

Your email address will not be published. Required fields are marked *

Enter the text from the image below
 

This site uses Akismet to reduce spam. Learn how your comment data is processed.