Megadeth – Countdown To Extinction (Japanese Edition)




Artist: Megadeth
Year: 1992
Genre: Metal
Notes: Discogs
Add. Notes: Japanese Edition
Cover incl.: Yes
Encoder: FLAC
Bitrate: ~1000 kBit/s (44.1 kHz/16 Bit/s)
Log & Cue incl.: Yes
Size: 609,44 MB
Password: “slam” (without ” “)


All Downloads/Hosters are compatible

Download 1
Turbobit.net
Rapidgator.net
KatFile.com
UploadRar.com
Download 2
Turbobit.net
Rapidgator.net
KatFile.com
UploadRar.com

Tracklist:

1 - Skin O' My Teeth - 3:15
2 - Symphony Of Destruction - 4:06
3 - Architecture Of Aggression - 3:39
4 - Foreclosure Of A Dream - 4:22
5 - Sweating Bullets - 5:27
6 - This Was My Life - 3:43
7 - Countdown To Extinction - 4:19
8 - High Speed Dirt - 4:21
9 - Psychotron - 4:41
10 - Captive Honour - 4:14
11 - Ashes In Your Mouth - 6:14
Bonus Tracks
12 - Crown Of Worms - 3:17
13 - Countdown To Extinction (Demo) - 3:55
14 - Symphony Of Destruction (Demo) - 5:29
15 - Psychotron (Demo) - 5:28

EAC-Log, CUE-Sheed & NFO:

Click to open spoiler
Exact Audio Copy V1.0 beta 3 from 29. August 2011

EAC extraction logfile from 24. August 2013, 20:17

Megadeth / Countdown To Extinction [Toshiba, TOCP-95120, SHM-CD, Japan]

Used drive : PIONEER DVD-RW DVR-112D Adapter: 0 ID: 0

Read mode : Secure
Utilize accurate stream : Yes
Defeat audio cache : Yes
Make use of C2 pointers : No

Read offset correction : 48
Overread into Lead-In and Lead-Out : No
Fill up missing offset samples with silence : Yes
Delete leading and trailing silent blocks : No
Null samples used in CRC calculations : Yes
Used interface : Installed external ASPI interface

Used output format : User Defined Encoder
Selected bitrate : 1024 kBit/s
Quality : High
Add ID3 tag : No
Command line compressor : C:\Program Files\Exact Audio Copy\FLAC\FLAC.EXE
Additional command line options : -V -8 -T “Date=%year%” -T “Genre=%genre%” %source%

TOC of the extracted CD

Track | Start | Length | Start sector | End sector
———————————————————
1 | 0:00.00 | 3:15.62 | 0 | 14686
2 | 3:15.62 | 4:06.63 | 14687 | 33199
3 | 7:22.50 | 3:39.60 | 33200 | 49684
4 | 11:02.35 | 4:22.32 | 49685 | 69366
5 | 15:24.67 | 5:27.03 | 69367 | 93894
6 | 20:51.70 | 3:43.30 | 93895 | 110649
7 | 24:35.25 | 4:19.17 | 110650 | 130091
8 | 28:54.42 | 4:21.03 | 130092 | 149669
9 | 33:15.45 | 4:41.67 | 149670 | 170811
10 | 37:57.37 | 4:14.58 | 170812 | 189919
11 | 42:12.20 | 6:14.62 | 189920 | 218031
12 | 48:27.07 | 3:17.68 | 218032 | 232874
13 | 51:45.00 | 3:55.22 | 232875 | 250521
14 | 55:40.22 | 5:29.63 | 250522 | 275259
15 | 61:10.10 | 5:28.30 | 275260 | 299889

Range status and errors

Selected range

Filename C:\CDRip by Deminbek\Megadeth – Countdown To Extinction [Toshiba, TOCP-95120, SHM-CD, Japan].wav

Peak level 100.0 %
Extraction speed 8.0 X
Range quality 99.9 %
Test CRC F5B7FD1A
Copy CRC F5B7FD1A
Copy OK

No errors occurred

AccurateRip summary

Track 1 cannot be verified as accurate (confidence 113) [D5DFF1B5], AccurateRip returned [B6C483EA] (AR v2)
Track 2 cannot be verified as accurate (confidence 114) [8BD318FB], AccurateRip returned [816A30A2] (AR v2)
Track 3 cannot be verified as accurate (confidence 112) [9454BB99], AccurateRip returned [A496640B] (AR v2)
Track 4 cannot be verified as accurate (confidence 70) [87CF5B79], AccurateRip returned [E8D65084] (AR v2)
Track 5 cannot be verified as accurate (confidence 112) [B6536392], AccurateRip returned [DE69B874] (AR v2)
Track 6 cannot be verified as accurate (confidence 69) [D5FCDEED], AccurateRip returned [5CBDBE75] (AR v2)
Track 7 cannot be verified as accurate (confidence 70) [AA859E01], AccurateRip returned [4770B404] (AR v2)
Track 8 cannot be verified as accurate (confidence 113) [103E14FF], AccurateRip returned [D602C5C0] (AR v2)
Track 9 cannot be verified as accurate (confidence 113) [AF90810E], AccurateRip returned [8DE1A3A5] (AR v2)
Track 10 cannot be verified as accurate (confidence 112) [6FD8DF7E], AccurateRip returned [44D3D42E] (AR v2)
Track 11 cannot be verified as accurate (confidence 111) [F5742A48], AccurateRip returned [8617E665] (AR v2)
Track 12 cannot be verified as accurate (confidence 106) [0BAF43F1], AccurateRip returned [461EBE7E] (AR v2)
Track 13 cannot be verified as accurate (confidence 108) [C8A41D6E], AccurateRip returned [FD64A1BC] (AR v2)
Track 14 cannot be verified as accurate (confidence 107) [76865952], AccurateRip returned [65AF5158] (AR v2)
Track 15 cannot be verified as accurate (confidence 105) [DED803F6], AccurateRip returned [8A2E143B] (AR v2)

No tracks could be verified as accurate
You may have a different pressing from the one(s) in the database

End of status report

—- CUETools DB Plugin V2.1.3

[CTDB TOCID: pvcZEQ96QqipMFBltiBmIwgMJjk-] found, Submit result: already submitted
[a49ba9f9] (105/216) Accurately ripped
[3806941c] (110/216) Differs in 32 samples @15:21:63,15:22:00-15:22:03,15:22:13-15:22:21,15:22:37-15:22:41,15:22:47-15:22:50,15:22:55-15:22:67,15:23:10-15:23:11,15:23:19-15:23:27,15:23:34-15:23:40,20:52:58,24:34:26,28:44:73
[26e692c7] (001/216) No match
You can use CUETools to repair this rip.

==== Log checksum DF874179BA2A85C8651B731DBC03C4CAF3F9823BD775CA9E027922934392EA2D ====

REM GENRE “Thrash Metal”
REM DATE 2013
REM DISCID E80F9E0F
REM COMMENT “ExactAudioCopy v1.0b3”
PERFORMER “Megadeth”
TITLE “Countdown To Extinction [Toshiba, TOCP-95120, SHM-CD, Japan]”
FILE “Megadeth – Countdown To Extinction [Toshiba, TOCP-95120, SHM-CD, Japan].flac” WAVE
TRACK 01 AUDIO
TITLE “Skin o’ My Teeth”
PERFORMER “Megadeth”
ISRC USCA20400615
INDEX 01 00:00:00
TRACK 02 AUDIO
TITLE “Symphony Of Destruction”
PERFORMER “Megadeth”
ISRC USCA20400616
INDEX 01 03:15:62
TRACK 03 AUDIO
TITLE “Architecture Of Aggression”
PERFORMER “Megadeth”
ISRC USCA20400617
INDEX 01 07:22:50
TRACK 04 AUDIO
TITLE “Foreclosure Of A Dream”
PERFORMER “Megadeth”
ISRC USCA20400619
INDEX 01 11:02:35
TRACK 05 AUDIO
TITLE “Sweating Bullets”
PERFORMER “Megadeth”
ISRC USCA20400622
INDEX 01 15:24:67
TRACK 06 AUDIO
TITLE “This Was My Life”
PERFORMER “Megadeth”
ISRC USCA20400623
INDEX 01 20:51:70
TRACK 07 AUDIO
TITLE “Countdown To Extinction”
PERFORMER “Megadeth”
ISRC USCA20400624
INDEX 01 24:35:25
TRACK 08 AUDIO
TITLE “High Speed Dirt”
PERFORMER “Megadeth”
ISRC USCA20400626
INDEX 01 28:54:42
TRACK 09 AUDIO
TITLE “Psychotron”
PERFORMER “Megadeth”
ISRC USCA20400627
INDEX 01 33:15:45
TRACK 10 AUDIO
TITLE “Captive Honour”
PERFORMER “Megadeth”
ISRC USCA20400629
INDEX 01 37:57:37
TRACK 11 AUDIO
TITLE “Ashes In Your Mouth”
PERFORMER “Megadeth”
ISRC USCA20400638
INDEX 01 42:12:20
TRACK 12 AUDIO
TITLE “Crown Of Worms”
PERFORMER “Megadeth”
ISRC USCA20400640
INDEX 01 48:27:07
TRACK 13 AUDIO
TITLE “Countdown To Extinction (Demo)”
PERFORMER “Megadeth”
ISRC USCA20400642
INDEX 01 51:45:00
TRACK 14 AUDIO
TITLE “Symphony Of Destruction (Demo)”
PERFORMER “Megadeth”
ISRC USCA20400644
INDEX 01 55:40:22
TRACK 15 AUDIO
TITLE “Psychotron (Demo)”
PERFORMER “Megadeth”
ISRC USCA20400645
INDEX 01 61:10:10


Leave a Reply

Your email address will not be published. Required fields are marked *

Enter the text from the image below
 

This site uses Akismet to reduce spam. Learn how your comment data is processed.