Meat Puppets – Up On The Sun (Remastered)




Artist: Meat Puppets
Year: 1985/1990
Genre: Rock
Notes: Discogs
Add. Notes: Remastered
Cover incl.: Yes
Encoder: FLAC
Bitrate: ~900 kBit/s (44.1 kHz/16 Bit/s)
Log & Cue incl.: Yes
Size: 382,77 MB
Password: “slam” (without ” “)


All Downloads/Hosters are compatible

Download 1
Turbobit.net
Rapidgator.net
UploadEver.com
KatFile.com
UsersDrive.com
Download 2
Turbobit.net
Rapidgator.net
UploadEver.com
KatFile.com
UsersDrive.com
Download 3
Turbobit.net
Rapidgator.net
UploadEver.com
KatFile.com
UsersDrive.com

Tracklist:

1 - Up On The Sun - 4:04
2 - Maiden's Milk - 3:20
3 - Away - 3:27
4 - Animal Kingdom - 1:25
5 - Hot Pink - 3:27
6 - Swimming Ground - 3:06
7 - Buckethead - 2:22
8 - Too Real - 2:12
9 - Enchanted Porkfist - 2:30
10 - Seal Whales - 2:20
11 - Two Rivers - 3:21
12 - Creator - 2:11
Bonus Tracks
13 - Hot Pink - 3:55
14 - Up On The Sun - 4:29
15 - Mother American Marshmallow - 4:28
16 - Embodiment Of Evil - 1:53
17 - Hot Pink - 8:37

EAC-Log, CUE-Sheed & NFO:

Click to open spoiler
Exact Audio Copy V0.99 prebeta 4 from 23. January 2008

Отчёт EAC об извлечении, выполненном 13. августа 2009, 11:32

Meat Puppets / Up On The Sun

Дисковод: Optiarc DVD RW AD-5170A Adapter: 0 ID: 0

Режим чтения : Достоверность
Использование точного потока : Да
Отключение кэша аудио : Да
Использование указателей C2 : Нет

Коррекция смещения при чтении : 48
Способность читать области Lead-in и Lead-out : Нет
Заполнение пропущенных сэмплов тишиной : Да
Удаление блоков с тишиной в начале и конце : Нет
При вычислениях CRC использовались нулевые сэмплы : Да
Интерфейс : Установленный внешний ASPI-интерфейс

Выходной формат : Внутренние WAV-операции
Формат сэмплов : 44.100 Гц; 16 бит; стерео

TOC извлечённого CD

Трек | Старт | Длительность | Начальный сектор | Конечный сектор
———————————————————————
1 | 0:00.00 | 4:06.00 | 0 | 18449
2 | 4:06.00 | 3:21.50 | 18450 | 33574
3 | 7:27.50 | 3:29.15 | 33575 | 49264
4 | 10:56.65 | 1:27.17 | 49265 | 55806
5 | 12:24.07 | 3:29.10 | 55807 | 71491
6 | 15:53.17 | 3:08.18 | 71492 | 85609
7 | 19:01.35 | 2:23.67 | 85610 | 96401
8 | 21:25.27 | 2:14.15 | 96402 | 106466
9 | 23:39.42 | 2:31.65 | 106467 | 117856
10 | 26:11.32 | 2:21.65 | 117857 | 128496
11 | 28:33.22 | 3:22.48 | 128497 | 143694
12 | 31:55.70 | 2:12.50 | 143695 | 153644
13 | 34:08.45 | 3:57.37 | 153645 | 171456
14 | 38:06.07 | 4:30.60 | 171457 | 191766
15 | 42:36.67 | 4:30.15 | 191767 | 212031
16 | 47:07.07 | 1:54.55 | 212032 | 220636
17 | 49:01.62 | 8:35.25 | 220637 | 259286

Характеристики диапазона извлечения и сообщения об ошибках

Выбранный диапазон

Имя файла D:\Meat Puppets – Дискография\1985 – Up On The Sun\Meat Puppets – Up On The Sun.wav

Пиковый уровень 100.0 %
Качество диапазона 100.0 %
CRC копии 4966C258
Копирование… OK

Ошибок не произошло

AccurateRip: сводка

Трек 1 нет в базе данных
Трек 2 нет в базе данных
Трек 3 нет в базе данных
Трек 4 нет в базе данных
Трек 5 нет в базе данных
Трек 6 нет в базе данных
Трек 7 нет в базе данных
Трек 8 нет в базе данных
Трек 9 нет в базе данных
Трек 10 нет в базе данных
Трек 11 нет в базе данных
Трек 12 нет в базе данных
Трек 13 нет в базе данных
Трек 14 нет в базе данных
Трек 15 нет в базе данных
Трек 16 нет в базе данных
Трек 17 нет в базе данных

Ни одного трека нет в базе AccurateRip

Конец отчёта

REM GENRE Rock
REM DATE 1985
REM DISCID 020D8111
REM COMMENT “ExactAudioCopy v0.99pb4”
PERFORMER “Meat Puppets”
TITLE “Up On The Sun”
FILE “Meat Puppets – Up On The Sun.wav” WAVE
TRACK 01 AUDIO
TITLE “Up On The Sun”
PERFORMER “Meat Puppets”
FLAGS DCP
INDEX 01 00:00:00
TRACK 02 AUDIO
TITLE “Maiden’s Milk”
PERFORMER “Meat Puppets”
FLAGS DCP
INDEX 00 04:04:00
INDEX 01 04:06:00
TRACK 03 AUDIO
TITLE “Away”
PERFORMER “Meat Puppets”
FLAGS DCP
INDEX 00 07:25:50
INDEX 01 07:27:50
TRACK 04 AUDIO
TITLE “Animal Kingdom”
PERFORMER “Meat Puppets”
FLAGS DCP
INDEX 00 10:54:65
INDEX 01 10:56:65
TRACK 05 AUDIO
TITLE “Hot Pink”
PERFORMER “Meat Puppets”
FLAGS DCP
INDEX 00 12:22:07
INDEX 01 12:24:07
TRACK 06 AUDIO
TITLE “Swimming Ground”
PERFORMER “Meat Puppets”
FLAGS DCP
INDEX 00 15:51:17
INDEX 01 15:53:17
TRACK 07 AUDIO
TITLE “Buckethead”
PERFORMER “Meat Puppets”
FLAGS DCP
INDEX 00 18:59:35
INDEX 01 19:01:35
TRACK 08 AUDIO
TITLE “Too Real”
PERFORMER “Meat Puppets”
FLAGS DCP
INDEX 00 21:23:27
INDEX 01 21:25:27
TRACK 09 AUDIO
TITLE “Enchanted Porkfist”
PERFORMER “Meat Puppets”
FLAGS DCP
INDEX 00 23:37:42
INDEX 01 23:39:42
TRACK 10 AUDIO
TITLE “Seal Whales”
PERFORMER “Meat Puppets”
FLAGS DCP
INDEX 00 26:09:32
INDEX 01 26:11:32
TRACK 11 AUDIO
TITLE “Two Rivers”
PERFORMER “Meat Puppets”
FLAGS DCP
INDEX 00 28:31:22
INDEX 01 28:33:22
TRACK 12 AUDIO
TITLE “Creator”
PERFORMER “Meat Puppets”
FLAGS DCP
INDEX 00 31:53:70
INDEX 01 31:55:70
TRACK 13 AUDIO
TITLE “Hot Pink (Bonus Track)”
PERFORMER “Meat Puppets”
FLAGS DCP
INDEX 00 34:06:45
INDEX 01 34:08:45
TRACK 14 AUDIO
TITLE “Up On The Sun (Bonus Track)”
PERFORMER “Meat Puppets”
FLAGS DCP
INDEX 00 38:04:07
INDEX 01 38:06:07
TRACK 15 AUDIO
TITLE “Mother American Marshmallow (Bonus Track)”
PERFORMER “Meat Puppets”
FLAGS DCP
INDEX 00 42:34:67
INDEX 01 42:36:67
TRACK 16 AUDIO
TITLE “Embodiment Of Evil (Bonus Track)”
PERFORMER “Meat Puppets”
FLAGS DCP
INDEX 00 47:05:07
INDEX 01 47:07:07
TRACK 17 AUDIO
TITLE “Hot Pink (Bonus Track)”
PERFORMER “Meat Puppets”
FLAGS DCP
INDEX 00 48:59:62
INDEX 01 49:01:62

Leave a Reply

Your email address will not be published. Required fields are marked *

This site uses Akismet to reduce spam. Learn how your comment data is processed.