Meat Puppets – To High To Die




Artist: Meat Puppets
Year: 1994
Genre: Punk
Notes: Discogs
Add. Notes:
Cover incl.: Yes
Encoder: FLAC
Bitrate: ~1000 kBit/s (44.1 kHz/16 Bit/s)
Log & Cue incl.: Yes
Size: 367,22 MB
Password: “slam” (without ” “)


All Downloads/Hosters are compatible

Download 1
Turbobit.net
Rapidgator.net
UploadEver.com
KatFile.com
UsersDrive.com
Download 2
Turbobit.net
Rapidgator.net
UploadEver.com
KatFile.com
UsersDrive.com
Download 3
Turbobit.net
Rapidgator.net
UploadEver.com
KatFile.com
UsersDrive.com

Tracklist:

1 - Violet Eyes - 3:51
2 - Never To Be Found - 4:46
3 - We Don't Exist - 3:44
4 - Severed Goddess Hand - 2:59
5 - Flaming Heart - 4:49
6 - Shine - 3:50
7 - Station - 2:22
8 - Roof With A Hole - 3:34
9 - Backwater - 3:42
10 - Things - 4:06
11 - Why? - 4:20
12 - Evil Love - 3:07
13.1 - Comin' Down - 3:46
13.2 - (silence) - 0:22
13.3 - Lake Of Fire - 3:10

EAC-Log, CUE-Sheed & NFO:

Click to open spoiler
Exact Audio Copy V0.99 prebeta 4 from 23. January 2008

Отчёт EAC об извлечении, выполненном 13. августа 2009, 11:14

Meat Puppets / Too High To Die

Дисковод: Optiarc DVD RW AD-5170A Adapter: 0 ID: 0

Режим чтения : Достоверность
Использование точного потока : Да
Отключение кэша аудио : Да
Использование указателей C2 : Нет

Коррекция смещения при чтении : 48
Способность читать области Lead-in и Lead-out : Нет
Заполнение пропущенных сэмплов тишиной : Да
Удаление блоков с тишиной в начале и конце : Нет
При вычислениях CRC использовались нулевые сэмплы : Да
Интерфейс : Установленный внешний ASPI-интерфейс

Выходной формат : Внутренние WAV-операции
Формат сэмплов : 44.100 Гц; 16 бит; стерео

TOC извлечённого CD

Трек | Старт | Длительность | Начальный сектор | Конечный сектор
———————————————————————
1 | 0:00.00 | 3:54.62 | 0 | 17611
2 | 3:54.62 | 4:47.68 | 17612 | 39204
3 | 8:42.55 | 3:47.00 | 39205 | 56229
4 | 12:29.55 | 3:01.17 | 56230 | 69821
5 | 15:30.72 | 4:50.60 | 69822 | 91631
6 | 20:21.57 | 3:52.00 | 91632 | 109031
7 | 24:13.57 | 2:22.70 | 109032 | 119751
8 | 26:36.52 | 3:35.38 | 119752 | 135914
9 | 30:12.15 | 3:42.45 | 135915 | 152609
10 | 33:54.60 | 4:07.67 | 152610 | 171201
11 | 38:02.52 | 4:22.28 | 171202 | 190879
12 | 42:25.05 | 3:08.70 | 190880 | 205049
13 | 45:34.00 | 3:47.65 | 205050 | 222139
14 | 49:21.65 | 3:11.10 | 222140 | 236474

Характеристики диапазона извлечения и сообщения об ошибках

Выбранный диапазон

Имя файла D:\Meat Puppets – Дискография\1994 – To High To Die\Meat Puppets – Too High To Die.wav

Пиковый уровень 100.0 %
Качество диапазона 100.0 %
CRC копии 0DBD1A9A
Копирование… OK

Ошибок не произошло

AccurateRip: сводка

Трек 1 нет в базе данных
Трек 2 нет в базе данных
Трек 3 нет в базе данных
Трек 4 нет в базе данных
Трек 5 нет в базе данных
Трек 6 нет в базе данных
Трек 7 нет в базе данных
Трек 8 нет в базе данных
Трек 9 нет в базе данных
Трек 10 нет в базе данных
Трек 11 нет в базе данных
Трек 12 нет в базе данных
Трек 13 нет в базе данных
Трек 14 нет в базе данных

Ни одного трека нет в базе AccurateRip

Конец отчёта

REM GENRE Alternative
REM DATE 1994
REM DISCID C20C510E
REM COMMENT “ExactAudioCopy v0.99pb4”
PERFORMER “Meat Puppets”
TITLE “Too High To Die”
FILE “Meat Puppets – Too High To Die.wav” WAVE
TRACK 01 AUDIO
TITLE “Violet Eyes”
PERFORMER “Meat Puppets”
FLAGS DCP
INDEX 01 00:00:00
TRACK 02 AUDIO
TITLE “Never To Be Found”
PERFORMER “Meat Puppets”
FLAGS DCP
INDEX 00 03:52:62
INDEX 01 03:54:62
TRACK 03 AUDIO
TITLE “We Don’t Exist”
PERFORMER “Meat Puppets”
FLAGS DCP
INDEX 00 08:40:55
INDEX 01 08:42:55
TRACK 04 AUDIO
TITLE “Severed Goddess Hand”
PERFORMER “Meat Puppets”
FLAGS DCP
INDEX 00 12:27:55
INDEX 01 12:29:55
TRACK 05 AUDIO
TITLE “Flaming Heart”
PERFORMER “Meat Puppets”
FLAGS DCP
INDEX 00 15:28:72
INDEX 01 15:30:72
TRACK 06 AUDIO
TITLE “Shine”
PERFORMER “Meat Puppets”
FLAGS DCP
INDEX 00 20:19:57
INDEX 01 20:21:57
TRACK 07 AUDIO
TITLE “Station”
PERFORMER “Meat Puppets”
FLAGS DCP
INDEX 00 24:11:57
INDEX 01 24:13:57
TRACK 08 AUDIO
TITLE “Roof With A Hole”
PERFORMER “Meat Puppets”
FLAGS DCP
INDEX 00 26:34:52
INDEX 01 26:36:52
TRACK 09 AUDIO
TITLE “Backwater”
PERFORMER “Meat Puppets”
FLAGS DCP
INDEX 00 30:10:15
INDEX 01 30:12:15
TRACK 10 AUDIO
TITLE “Things”
PERFORMER “Meat Puppets”
FLAGS DCP
INDEX 00 33:52:60
INDEX 01 33:54:60
TRACK 11 AUDIO
TITLE “Why?”
PERFORMER “Meat Puppets”
FLAGS DCP
INDEX 00 38:00:52
INDEX 01 38:02:52
TRACK 12 AUDIO
TITLE “Evil Love”
PERFORMER “Meat Puppets”
FLAGS DCP
INDEX 00 42:23:05
INDEX 01 42:25:05
TRACK 13 AUDIO
TITLE “Comin’ Down”
PERFORMER “Meat Puppets”
FLAGS DCP
INDEX 00 45:32:00
INDEX 01 45:34:00
TRACK 14 AUDIO
TITLE “Lake Of Fire”
PERFORMER “Meat Puppets”
FLAGS DCP
INDEX 00 49:19:65
INDEX 01 49:21:65

Leave a Reply

Your email address will not be published. Required fields are marked *

Enter the text from the image below
 

This site uses Akismet to reduce spam. Learn how your comment data is processed.