Meat Puppets – Rise To Your Knees




Artist: Meat Puppets
Year: 2007
Genre: Rock
Notes: Discogs
Add. Notes:
Cover incl.: No
Encoder: FLAC
Bitrate: ~900 kBit/s (44.1 kHz/16 Bit/s)
Log & Cue incl.: Yes
Size: 242,08 MB
Password: “slam” (without ” “)


All Downloads/Hosters are compatible

Download 1
Turbobit.net
Rapidgator.net
KatFile.com
UploadRar.com
Download 2
Turbobit.net
Rapidgator.net
KatFile.com
UploadRar.com
Download 3
Turbobit.net
Rapidgator.net
KatFile.com
UploadRar.com

Tracklist:

1 - Fly Like The Wind - 5:31
2 - On The Rise - 4:01
3 - Radio Moth - 3:44
4 - Tiny Kingdom - 5:04
5 - Enemy Love Song - 3:24
6 - Spit - 4:20
7 - Island - 3:51
8 - Vultures - 4:09
9 - Stone Eyes - 3:59
10 - This Song - 4:22
11 - New Leaf - 3:57
12 - Disappear - 4:18
13 - The Ship - 4:17
14 - Ice - 6:11
15 - Light The Fire - 6:22

EAC-Log, CUE-Sheed & NFO:

Click to open spoiler
Exact Audio Copy V0.99 prebeta 1 from 25. May 2007

EAC extraction logfile from 8. October 2007, 19:59

Meat Puppets / Rise To Your Knees

Used drive : PHILIPS DVD+-RW DVD8631 Adapter: 1 ID: 1

Read mode : Secure
Utilize accurate stream : Yes
Defeat audio cache : Yes
Make use of C2 pointers : No

Read offset correction : 618
Overread into Lead-In and Lead-Out : No
Fill up missing offset samples with silence : Yes
Delete leading and trailing silent blocks : No
Used interface : Installed external ASPI interface
Gap handling : Appended to previous track

Used output format : Internal WAV Routines
Sample format : 44.100 Hz; 16 Bit; Stereo

TOC of the extracted CD

Track | Start | Length | Start sector | End sector
———————————————————
1 | 0:00.00 | 5:31.05 | 0 | 24829
2 | 5:31.05 | 4:01.16 | 24830 | 42920
3 | 9:32.21 | 3:44.04 | 42921 | 59724
4 | 13:16.25 | 5:04.19 | 59725 | 82543
5 | 18:20.44 | 3:24.59 | 82544 | 97902
6 | 21:45.28 | 4:20.39 | 97903 | 117441
7 | 26:05.67 | 3:51.45 | 117442 | 134811
8 | 29:57.37 | 4:09.33 | 134812 | 153519
9 | 34:06.70 | 3:59.46 | 153520 | 171490
10 | 38:06.41 | 4:22.53 | 171491 | 191193
11 | 42:29.19 | 3:57.11 | 191194 | 208979
12 | 46:26.30 | 4:18.50 | 208980 | 228379
13 | 50:45.05 | 4:17.69 | 228380 | 247723
14 | 55:02.74 | 6:11.26 | 247724 | 275574
15 | 61:14.25 | 6:22.49 | 275575 | 304273

Track 1

Filename [CENSORED]\Meat Puppets – Rise To Your Knees\Meat Puppets – Rise To Your Knees – 01 – Fly Like The Wind.wav

Pre-gap length 0:00:02.00

Peak level 98.8 %
Track quality 99.9 %
Test CRC 594EE8FF
Copy CRC 594EE8FF
Accurately ripped (confidence 1) [AB8C3E6A]
Copy OK

Track 2

Filename [CENSORED]\Meat Puppets – Rise To Your Knees\Meat Puppets – Rise To Your Knees – 02 – One The Rise.wav

Pre-gap length 0:00:02.00

Peak level 98.3 %
Track quality 100.0 %
Test CRC 5B0EEAF6
Copy CRC 5B0EEAF6
Accurately ripped (confidence 1) [DE72E2D3]
Copy OK

Track 3

Filename [CENSORED]\Meat Puppets – Rise To Your Knees\Meat Puppets – Rise To Your Knees – 03 – Radio Moth.wav

Pre-gap length 0:00:03.53

Peak level 98.8 %
Track quality 100.0 %
Test CRC 5125E3B9
Copy CRC 5125E3B9
Accurately ripped (confidence 1) [0772C15D]
Copy OK

Track 4

Filename [CENSORED]\Meat Puppets – Rise To Your Knees\Meat Puppets – Rise To Your Knees – 04 – Tiny Kingdom.wav

Pre-gap length 0:00:03.32

Peak level 96.6 %
Track quality 100.0 %
Test CRC 96D35679
Copy CRC 96D35679
Accurately ripped (confidence 1) [7FDEC84D]
Copy OK

Track 5

Filename [CENSORED]\Meat Puppets – Rise To Your Knees\Meat Puppets – Rise To Your Knees – 05 – Enemy Love Song.wav

Pre-gap length 0:00:02.67

Peak level 98.8 %
Track quality 100.0 %
Test CRC 0F37ABE4
Copy CRC 0F37ABE4
Accurately ripped (confidence 1) [15876CE8]
Copy OK

Track 6

Filename [CENSORED]\Meat Puppets – Rise To Your Knees\Meat Puppets – Rise To Your Knees – 06 – Spit.wav

Pre-gap length 0:00:02.73

Peak level 96.6 %
Track quality 100.0 %
Test CRC 6FABC208
Copy CRC 6FABC208
Accurately ripped (confidence 1) [1CCC4374]
Copy OK

Track 7

Filename [CENSORED]\Meat Puppets – Rise To Your Knees\Meat Puppets – Rise To Your Knees – 07 – Island.wav

Pre-gap length 0:00:02.15

Peak level 96.6 %
Track quality 100.0 %
Test CRC 516B739C
Copy CRC 516B739C
Accurately ripped (confidence 1) [9436181A]
Copy OK

Track 8

Filename [CENSORED]\Meat Puppets – Rise To Your Knees\Meat Puppets – Rise To Your Knees – 08 – Vultures.wav

Pre-gap length 0:00:03.44

Peak level 96.6 %
Track quality 100.0 %
Test CRC 3654FC01
Copy CRC 3654FC01
Accurately ripped (confidence 1) [B6771069]
Copy OK

Track 9

Filename [CENSORED]\Meat Puppets – Rise To Your Knees\Meat Puppets – Rise To Your Knees – 09 – Stone Eyes.wav

Pre-gap length 0:00:02.02

Peak level 98.8 %
Track quality 100.0 %
Test CRC 881BC38D
Copy CRC 881BC38D
Accurately ripped (confidence 1) [1E82C9BC]
Copy OK

Track 10

Filename [CENSORED]\Meat Puppets – Rise To Your Knees\Meat Puppets – Rise To Your Knees – 10 – This Song.wav

Pre-gap length 0:00:03.51

Peak level 97.5 %
Track quality 100.0 %
Test CRC 88F12FD7
Copy CRC 88F12FD7
Accurately ripped (confidence 1) [EAF6D586]
Copy OK

Track 11

Filename [CENSORED]\Meat Puppets – Rise To Your Knees\Meat Puppets – Rise To Your Knees – 11 – New Leaf.wav

Pre-gap length 0:00:02.18

Peak level 96.6 %
Track quality 100.0 %
Test CRC 0FDEFE97
Copy CRC 0FDEFE97
Accurately ripped (confidence 1) [BF0D7EEB]
Copy OK

Track 12

Filename [CENSORED]\Meat Puppets – Rise To Your Knees\Meat Puppets – Rise To Your Knees – 12 – Disappear.wav

Pre-gap length 0:00:03.54

Peak level 96.6 %
Track quality 99.9 %
Test CRC 7DB31E2F
Copy CRC 7DB31E2F
Accurately ripped (confidence 1) [68D6EDC7]
Copy OK

Track 13

Filename [CENSORED]\Meat Puppets – Rise To Your Knees\Meat Puppets – Rise To Your Knees – 13 – The Ship.wav

Pre-gap length 0:00:02.13

Peak level 96.6 %
Track quality 100.0 %
Test CRC D5D7DBD2
Copy CRC D5D7DBD2
Accurately ripped (confidence 1) [0DB77CFB]
Copy OK

Track 14

Filename [CENSORED]\Meat Puppets – Rise To Your Knees\Meat Puppets – Rise To Your Knees – 14 – Ice.wav

Pre-gap length 0:00:02.12

Peak level 96.6 %
Track quality 100.0 %
Test CRC 67321799
Copy CRC 67321799
Accurately ripped (confidence 1) [5B3131DC]
Copy OK

Track 15

Filename [CENSORED]\Meat Puppets – Rise To Your Knees\Meat Puppets – Rise To Your Knees – 15 – Light The Fire.wav

Pre-gap length 0:00:02.35

Peak level 96.6 %
Track quality 100.0 %
Test CRC B56A8A28
Copy CRC B56A8A28
Accurately ripped (confidence 1) [C97DCC97]
Copy OK

No errors occurred

End of status report

REM GENRE “Alt. Rock”
REM DATE 2007
REM DISCID E50FD80F
REM COMMENT “ExactAudioCopy v0.99pb1”
PERFORMER “Meat Puppets”
TITLE “Rise To Your Knees”
FILE “Meat Puppets – Rise To Your Knees – 01 – Fly Like The Wind.wav” WAVE
TRACK 01 AUDIO
TITLE “Fly Like The Wind”
PERFORMER “Meat Puppets”
ISRC USFMW0600115
INDEX 01 00:00:00
TRACK 02 AUDIO
TITLE “One The Rise”
PERFORMER “Meat Puppets”
ISRC USFMW0600116
FLAGS DCP
INDEX 00 05:29:05
FILE “Meat Puppets – Rise To Your Knees – 02 – One The Rise.wav” WAVE
INDEX 01 00:00:00
TRACK 03 AUDIO
TITLE “Radio Moth”
PERFORMER “Meat Puppets”
ISRC USFMW0600117
FLAGS DCP
INDEX 00 03:57:38
FILE “Meat Puppets – Rise To Your Knees – 03 – Radio Moth.wav” WAVE
INDEX 01 00:00:00
TRACK 04 AUDIO
TITLE “Tiny Kingdom”
PERFORMER “Meat Puppets”
ISRC USFMW0600118
FLAGS DCP
INDEX 00 03:40:47
FILE “Meat Puppets – Rise To Your Knees – 04 – Tiny Kingdom.wav” WAVE
INDEX 01 00:00:00
TRACK 05 AUDIO
TITLE “Enemy Love Song”
PERFORMER “Meat Puppets”
ISRC USFMW0600119
FLAGS DCP
INDEX 00 05:01:27
FILE “Meat Puppets – Rise To Your Knees – 05 – Enemy Love Song.wav” WAVE
INDEX 01 00:00:00
TRACK 06 AUDIO
TITLE “Spit”
PERFORMER “Meat Puppets”
ISRC USFMW0600120
FLAGS DCP
INDEX 00 03:21:61
FILE “Meat Puppets – Rise To Your Knees – 06 – Spit.wav” WAVE
INDEX 01 00:00:00
TRACK 07 AUDIO
TITLE “Island”
PERFORMER “Meat Puppets”
ISRC USFMW0600121
FLAGS DCP
INDEX 00 04:18:24
FILE “Meat Puppets – Rise To Your Knees – 07 – Island.wav” WAVE
INDEX 01 00:00:00
TRACK 08 AUDIO
TITLE “Vultures”
PERFORMER “Meat Puppets”
ISRC USFMW0600122
FLAGS DCP
INDEX 00 03:48:01
FILE “Meat Puppets – Rise To Your Knees – 08 – Vultures.wav” WAVE
INDEX 01 00:00:00
TRACK 09 AUDIO
TITLE “Stone Eyes”
PERFORMER “Meat Puppets”
ISRC USFMW0600123
FLAGS DCP
INDEX 00 04:07:31
FILE “Meat Puppets – Rise To Your Knees – 09 – Stone Eyes.wav” WAVE
INDEX 01 00:00:00
TRACK 10 AUDIO
TITLE “This Song”
PERFORMER “Meat Puppets”
ISRC USFMW0600124
FLAGS DCP
INDEX 00 03:55:70
FILE “Meat Puppets – Rise To Your Knees – 10 – This Song.wav” WAVE
INDEX 01 00:00:00
TRACK 11 AUDIO
TITLE “New Leaf”
PERFORMER “Meat Puppets”
ISRC USFMW0600125
FLAGS DCP
INDEX 00 04:20:35
FILE “Meat Puppets – Rise To Your Knees – 11 – New Leaf.wav” WAVE
INDEX 01 00:00:00
TRACK 12 AUDIO
TITLE “Disappear”
PERFORMER “Meat Puppets”
ISRC USFMW0600126
FLAGS DCP
INDEX 00 03:53:32
FILE “Meat Puppets – Rise To Your Knees – 12 – Disappear.wav” WAVE
INDEX 01 00:00:00
TRACK 13 AUDIO
TITLE “The Ship”
PERFORMER “Meat Puppets”
ISRC USFMW0600127
FLAGS DCP
INDEX 00 04:16:37
FILE “Meat Puppets – Rise To Your Knees – 13 – The Ship.wav” WAVE
INDEX 01 00:00:00
TRACK 14 AUDIO
TITLE “Ice”
PERFORMER “Meat Puppets”
ISRC USFMW0600128
FLAGS DCP
INDEX 00 04:15:57
FILE “Meat Puppets – Rise To Your Knees – 14 – Ice.wav” WAVE
INDEX 01 00:00:00
TRACK 15 AUDIO
TITLE “Light The Fire”
PERFORMER “Meat Puppets”
ISRC USFMW0600129
FLAGS DCP
INDEX 00 06:08:66
FILE “Meat Puppets – Rise To Your Knees – 15 – Light The Fire.wav” WAVE
INDEX 01 00:00:00


Leave a Reply

Your email address will not be published. Required fields are marked *

This site uses Akismet to reduce spam. Learn how your comment data is processed.