Meat Puppets – No Strings Attached




Artist: Meat Puppets
Year: 1990
Genre: Punk
Notes: Discogs
Add. Notes:
Cover incl.: Yes
Encoder: FLAC
Bitrate: ~900 kBit/s (44.1 kHz/16 Bit/s)
Log & Cue incl.: Yes
Size: 488,2 MB
Password: “slam” (without ” “)


All Downloads/Hosters are compatible

Download 1
Turbobit.net
Rapidgator.net
UploadEver.com
KatFile.com
UsersDrive.com
Download 2
Turbobit.net
Rapidgator.net
UploadEver.com
KatFile.com
UsersDrive.com
Download 3
Turbobit.net
Rapidgator.net
UploadEver.com
KatFile.com
UsersDrive.com

Tracklist:

1 - Big House - 1:04
2 - In A Car - 1:19
3 - Tumblin' Tumbleweeds - 2:02
4 - Reward - 1:08
5 - The Whistling Song - 2:56
6 - New Gods - 2:10
7 - Lost - 3:25
8 - Lake Of Fire - 1:55
9 - Split Myself In Two - 2:22
10 - Up On The Sun - 4:01
11 - Swimming Ground - 3:04
12 - Maiden's Milk - 3:16
13 - Bucket Head - 2:20
14 - Out My Way - 4:49
15 - Confusion Fog - 3:48
16 - I Am A Machine - 4:21
17 - Quit It - 2:35
18 - Beauty - 2:59
19 - Look At The Rain - 4:19
20 - I Can't Be Counted On At All - 3:58
21 - Automatic Mojo - 3:20
22 - Meltdown - 3:06
23 - Like Being Alive - 4:42
24 - Attacked By Monsters - 4:41

EAC-Log, CUE-Sheed & NFO:

Click to open spoiler
Exact Audio Copy V0.99 prebeta 4 from 23. January 2008

Отчёт EAC об извлечении, выполненном 25. апреля 2009, 13:50

Meat Puppets / No Strings Attached

Дисковод: Optiarc DVD RW AD-7173S Adapter: 2 ID: 0

Режим чтения : Достоверность
Использование точного потока : Да
Отключение кэша аудио : Да
Использование указателей C2 : Нет

Коррекция смещения при чтении : 48
Способность читать области Lead-in и Lead-out : Нет
Заполнение пропущенных сэмплов тишиной : Да
Удаление блоков с тишиной в начале и конце : Нет
При вычислениях CRC использовались нулевые сэмплы : Да
Интерфейс : Установленный внешний ASPI-интерфейс

Выходной формат : Внутренние WAV-операции
Формат сэмплов : 44.100 Гц; 16 бит; стерео

TOC извлечённого CD

Трек | Старт | Длительность | Начальный сектор | Конечный сектор
———————————————————————
1 | 0:00.00 | 1:09.17 | 0 | 5191
2 | 1:09.17 | 1:22.74 | 5192 | 11415
3 | 2:32.16 | 2:04.54 | 11416 | 20769
4 | 4:36.70 | 1:12.29 | 20770 | 26198
5 | 5:49.24 | 2:58.36 | 26199 | 39584
6 | 8:47.60 | 2:13.37 | 39585 | 49596
7 | 11:01.22 | 3:28.19 | 49597 | 65215
8 | 14:29.41 | 1:58.56 | 65216 | 74121
9 | 16:28.22 | 2:27.09 | 74122 | 85155
10 | 18:55.31 | 4:04.32 | 85156 | 103487
11 | 22:59.63 | 3:08.09 | 103488 | 117596
12 | 26:07.72 | 3:21.41 | 117597 | 132712
13 | 29:29.38 | 2:24.32 | 132713 | 143544
14 | 31:53.70 | 4:52.16 | 143545 | 165460
15 | 36:46.11 | 3:53.12 | 165461 | 182947
16 | 40:39.23 | 4:24.71 | 182948 | 202818
17 | 45:04.19 | 2:38.67 | 202819 | 214735
18 | 47:43.11 | 3:04.26 | 214736 | 228561
19 | 50:47.37 | 4:23.49 | 228562 | 248335
20 | 55:11.11 | 4:02.19 | 248336 | 266504
21 | 59:13.30 | 3:23.57 | 266505 | 281786
22 | 62:37.12 | 3:11.04 | 281787 | 296115
23 | 65:48.16 | 4:43.54 | 296116 | 317394
24 | 70:31.70 | 4:42.69 | 317395 | 338613

Характеристики диапазона извлечения и сообщения об ошибках

Выбранный диапазон

Имя файла D:\Meat Puppets\Meat Puppets-No Strings Attached\Meat Puppets – No Strings Attached.wav

Пиковый уровень 100.0 %
Качество диапазона 100.0 %
CRC копии 75F7CFC5
Копирование… OK

Ошибок не произошло

AccurateRip: сводка

Трек 1 нет в базе данных
Трек 2 нет в базе данных
Трек 3 нет в базе данных
Трек 4 нет в базе данных
Трек 5 нет в базе данных
Трек 6 нет в базе данных
Трек 7 нет в базе данных
Трек 8 нет в базе данных
Трек 9 нет в базе данных
Трек 10 нет в базе данных
Трек 11 нет в базе данных
Трек 12 нет в базе данных
Трек 13 нет в базе данных
Трек 14 нет в базе данных
Трек 15 нет в базе данных
Трек 16 нет в базе данных
Трек 17 нет в базе данных
Трек 18 нет в базе данных
Трек 19 нет в базе данных
Трек 20 нет в базе данных
Трек 21 нет в базе данных
Трек 22 нет в базе данных
Трек 23 нет в базе данных
Трек 24 нет в базе данных

Ни одного трека нет в базе AccurateRip

Конец отчёта

REM GENRE Punk
REM DATE 1990
REM DISCID 5A11A218
REM COMMENT “ExactAudioCopy v0.99pb4”
PERFORMER “Meat Puppets”
TITLE “No Strings Attached”
FILE “Meat Puppets – No Strings Attached.wav” WAVE
TRACK 01 AUDIO
TITLE “Big House”
PERFORMER “Meat Puppets”
FLAGS DCP
INDEX 01 00:00:00
TRACK 02 AUDIO
TITLE “In A Car”
PERFORMER “Meat Puppets”
FLAGS DCP
INDEX 00 01:07:17
INDEX 01 01:09:17
TRACK 03 AUDIO
TITLE “Tumblin’ Tumbleweeds”
PERFORMER “Meat Puppets”
FLAGS DCP
INDEX 00 02:30:16
INDEX 01 02:32:16
TRACK 04 AUDIO
TITLE “Reward”
PERFORMER “Meat Puppets”
FLAGS DCP
INDEX 00 04:34:70
INDEX 01 04:36:70
TRACK 05 AUDIO
TITLE “The Whistling Song”
PERFORMER “Meat Puppets”
FLAGS DCP
INDEX 00 05:47:24
INDEX 01 05:49:24
TRACK 06 AUDIO
TITLE “New Gods”
PERFORMER “Meat Puppets”
FLAGS DCP
INDEX 00 08:45:60
INDEX 01 08:47:60
TRACK 07 AUDIO
TITLE “Lost”
PERFORMER “Meat Puppets”
FLAGS DCP
INDEX 00 10:59:22
INDEX 01 11:01:22
TRACK 08 AUDIO
TITLE “Lake Of Fire”
PERFORMER “Meat Puppets”
FLAGS DCP
INDEX 00 14:27:41
INDEX 01 14:29:41
TRACK 09 AUDIO
TITLE “Split Myself In Two”
PERFORMER “Meat Puppets”
FLAGS DCP
INDEX 00 16:26:22
INDEX 01 16:28:22
TRACK 10 AUDIO
TITLE “Up On The Sun”
PERFORMER “Meat Puppets”
FLAGS DCP
INDEX 00 18:53:31
INDEX 01 18:55:31
TRACK 11 AUDIO
TITLE “Swimming Ground”
PERFORMER “Meat Puppets”
FLAGS DCP
INDEX 00 22:57:63
INDEX 01 22:59:63
TRACK 12 AUDIO
TITLE “Maiden’s Milk”
PERFORMER “Meat Puppets”
FLAGS DCP
INDEX 00 26:05:72
INDEX 01 26:07:72
TRACK 13 AUDIO
TITLE “Bucket Head”
PERFORMER “Meat Puppets”
FLAGS DCP
INDEX 00 29:27:38
INDEX 01 29:29:38
TRACK 14 AUDIO
TITLE “Out My Way”
PERFORMER “Meat Puppets”
FLAGS DCP
INDEX 00 31:51:70
INDEX 01 31:53:70
TRACK 15 AUDIO
TITLE “Confusion Fog”
PERFORMER “Meat Puppets”
FLAGS DCP
INDEX 00 36:44:11
INDEX 01 36:46:11
TRACK 16 AUDIO
TITLE “I Am A Machine”
PERFORMER “Meat Puppets”
FLAGS DCP
INDEX 00 40:37:23
INDEX 01 40:39:23
TRACK 17 AUDIO
TITLE “Quit It”
PERFORMER “Meat Puppets”
FLAGS DCP
INDEX 00 45:02:19
INDEX 01 45:04:19
TRACK 18 AUDIO
TITLE “Beauty”
PERFORMER “Meat Puppets”
FLAGS DCP
INDEX 00 47:41:11
INDEX 01 47:43:11
TRACK 19 AUDIO
TITLE “Look At The Rain”
PERFORMER “Meat Puppets”
FLAGS DCP
INDEX 00 50:45:37
INDEX 01 50:47:37
TRACK 20 AUDIO
TITLE “I Cant Be Counted On At All”
PERFORMER “Meat Puppets”
FLAGS DCP
INDEX 00 55:09:11
INDEX 01 55:11:11
TRACK 21 AUDIO
TITLE “Automatic Mojo”
PERFORMER “Meat Puppets”
FLAGS DCP
INDEX 00 59:11:30
INDEX 01 59:13:30
TRACK 22 AUDIO
TITLE “Meltdown”
PERFORMER “Meat Puppets”
FLAGS DCP
INDEX 00 62:35:12
INDEX 01 62:37:12
TRACK 23 AUDIO
TITLE “Like Being Alive”
PERFORMER “Meat Puppets”
FLAGS DCP
INDEX 00 65:46:16
INDEX 01 65:48:16
TRACK 24 AUDIO
TITLE “Attacked By Monsters”
PERFORMER “Meat Puppets”
FLAGS DCP
INDEX 00 70:29:70
INDEX 01 70:31:70

Leave a Reply

Your email address will not be published. Required fields are marked *

This site uses Akismet to reduce spam. Learn how your comment data is processed.