Meat Puppets – No Joke




Artist: Meat Puppets
Year: 1995
Genre: Punk
Notes: Discogs
Add. Notes:
Cover incl.: Yes
Encoder: FLAC
Bitrate: ~1000 kBit/s (44.1 kHz/16 Bit/s)
Log & Cue incl.: Yes
Size: 395,66 MB
Password: “slam” (without ” “)


All Downloads/Hosters are compatible

Download 1
Turbobit.net
Rapidgator.net
UploadEver.com
KatFile.com
UsersDrive.com
Download 2
Turbobit.net
Rapidgator.net
UploadEver.com
KatFile.com
UsersDrive.com
Download 3
Turbobit.net
Rapidgator.net
UploadEver.com
KatFile.com
UsersDrive.com

Tracklist:

1 - Scum - 3:53
2 - Nothing - 6:26
3 - Head - 4:17
4 - Taste Of The Sun - 3:58
5 - Vampires - 4:35
6 - Predator - 4:31
7 - Poison Arrow - 3:11
8 - Eyeball - 4:04
9 - For Free - 4:29
10 - Cobbler - 3:25
11 - Inflatable - 3:27
12 - Sweet Ammonia - 4:15
13 - Chemical Garden - 4:14

EAC-Log, CUE-Sheed & NFO:

Click to open spoiler
Exact Audio Copy V0.99 prebeta 4 from 23. January 2008

Отчёт EAC об извлечении, выполненном 25. апреля 2009, 12:34

Meat Puppets / No Joke

Дисковод: Optiarc DVD RW AD-7173S Adapter: 2 ID: 0

Режим чтения : Достоверность
Использование точного потока : Да
Отключение кэша аудио : Да
Использование указателей C2 : Нет

Коррекция смещения при чтении : 48
Способность читать области Lead-in и Lead-out : Нет
Заполнение пропущенных сэмплов тишиной : Да
Удаление блоков с тишиной в начале и конце : Нет
При вычислениях CRC использовались нулевые сэмплы : Да
Интерфейс : Установленный внешний ASPI-интерфейс

Выходной формат : Внутренние WAV-операции
Формат сэмплов : 44.100 Гц; 16 бит; стерео

TOC извлечённого CD

Трек | Старт | Длительность | Начальный сектор | Конечный сектор
———————————————————————
1 | 0:00.00 | 3:55.65 | 0 | 17689
2 | 3:55.65 | 6:29.47 | 17690 | 46911
3 | 10:25.37 | 4:19.63 | 46912 | 66399
4 | 14:45.25 | 4:00.47 | 66400 | 84446
5 | 18:45.72 | 4:37.00 | 84447 | 105221
6 | 23:22.72 | 4:33.15 | 105222 | 125711
7 | 27:56.12 | 3:14.10 | 125712 | 140271
8 | 31:10.22 | 4:06.68 | 140272 | 158789
9 | 35:17.15 | 4:31.12 | 158790 | 179126
10 | 39:48.27 | 3:27.48 | 179127 | 194699
11 | 43:16.00 | 3:30.37 | 194700 | 210486
12 | 46:46.37 | 4:19.00 | 210487 | 229911
13 | 51:05.37 | 4:15.38 | 229912 | 249074

Характеристики диапазона извлечения и сообщения об ошибках

Выбранный диапазон

Имя файла D:\Meat Puppets\Meat Puppets-No Joke\Meat Puppets – No Joke.wav

Пиковый уровень 100.0 %
Качество диапазона 100.0 %
CRC копии BD83D1AD
Копирование… OK

Ошибок не произошло

AccurateRip: сводка

Трек 1 нет в базе данных
Трек 2 нет в базе данных
Трек 3 нет в базе данных
Трек 4 нет в базе данных
Трек 5 нет в базе данных
Трек 6 нет в базе данных
Трек 7 нет в базе данных
Трек 8 нет в базе данных
Трек 9 нет в базе данных
Трек 10 нет в базе данных
Трек 11 нет в базе данных
Трек 12 нет в базе данных
Трек 13 нет в базе данных

Ни одного трека нет в базе AccurateRip

Конец отчёта

REM GENRE Punk
REM DATE 1995
REM DISCID C50CF90D
REM COMMENT “ExactAudioCopy v0.99pb4”
PERFORMER “Meat Puppets”
TITLE “No Joke”
FILE “Meat Puppets – No Joke.wav” WAVE
TRACK 01 AUDIO
TITLE “Scum”
PERFORMER “Meat Puppets”
FLAGS DCP
INDEX 01 00:00:00
TRACK 02 AUDIO
TITLE “Nothing”
PERFORMER “Meat Puppets”
FLAGS DCP
INDEX 00 03:53:65
INDEX 01 03:55:65
TRACK 03 AUDIO
TITLE “Head”
PERFORMER “Meat Puppets”
FLAGS DCP
INDEX 00 10:23:37
INDEX 01 10:25:37
TRACK 04 AUDIO
TITLE “Taste Of The Sun”
PERFORMER “Meat Puppets”
FLAGS DCP
INDEX 00 14:43:25
INDEX 01 14:45:25
TRACK 05 AUDIO
TITLE “Vampires”
PERFORMER “Meat Puppets”
FLAGS DCP
INDEX 00 18:43:72
INDEX 01 18:45:72
TRACK 06 AUDIO
TITLE “Predator”
PERFORMER “Meat Puppets”
FLAGS DCP
INDEX 00 23:20:72
INDEX 01 23:22:72
TRACK 07 AUDIO
TITLE “Poison Arrow”
PERFORMER “Meat Puppets”
FLAGS DCP
INDEX 00 27:54:12
INDEX 01 27:56:12
TRACK 08 AUDIO
TITLE “Eyeball”
PERFORMER “Meat Puppets”
FLAGS DCP
INDEX 00 31:08:22
INDEX 01 31:10:22
TRACK 09 AUDIO
TITLE “For Free”
PERFORMER “Meat Puppets”
FLAGS DCP
INDEX 00 35:15:15
INDEX 01 35:17:15
TRACK 10 AUDIO
TITLE “Cobbler”
PERFORMER “Meat Puppets”
FLAGS DCP
INDEX 00 39:46:27
INDEX 01 39:48:27
TRACK 11 AUDIO
TITLE “Inflatable”
PERFORMER “Meat Puppets”
FLAGS DCP
INDEX 00 43:14:00
INDEX 01 43:16:00
TRACK 12 AUDIO
TITLE “Sweet Ammonia”
PERFORMER “Meat Puppets”
FLAGS DCP
INDEX 00 46:44:37
INDEX 01 46:46:37
TRACK 13 AUDIO
TITLE “Chemical Garden”
PERFORMER “Meat Puppets”
FLAGS DCP
INDEX 00 51:03:37
INDEX 01 51:05:37

Leave a Reply

Your email address will not be published. Required fields are marked *

This site uses Akismet to reduce spam. Learn how your comment data is processed.