Meat Puppets – Monsters




Artist: Meat Puppets
Year: 1989
Genre: Rock
Notes: Discogs
Add. Notes:
Cover incl.: Yes
Encoder: FLAC
Bitrate: ~1000 kBit/s (44.1 kHz/16 Bit/s)
Log & Cue incl.: Yes
Size: 414,54 MB
Password: “slam” (without ” “)


All Downloads/Hosters are compatible

Download 1
Turbobit.net
Rapidgator.net
UploadEver.com
KatFile.com
UsersDrive.com
Download 2
Turbobit.net
Rapidgator.net
UploadEver.com
KatFile.com
UsersDrive.com
Download 3
Turbobit.net
Rapidgator.net
UploadEver.com
KatFile.com
UsersDrive.com

Tracklist:

1 - Attacked By Monsters - 4:43
2 - Light - 4:15
3 - Meltdown - 3:06
4 - In Love - 3:50
5 - The Void - 6:32
6 - Touchdown King - 6:07
7 - Party Till The World Obeys - 4:20
8 - Flight Of The Fire Weasel - 3:16
9 - Strings On Your Heart - 5:10
10 - Like Being Alive - 4:42

EAC-Log, CUE-Sheed & NFO:

Click to open spoiler
Exact Audio Copy V0.99 prebeta 4 from 23. January 2008

Отчёт EAC об извлечении, выполненном 6. августа 2009, 21:35

Meat Puppets / Monsters

Дисковод: Optiarc DVD RW AD-5170A Adapter: 0 ID: 0

Режим чтения : Достоверность
Использование точного потока : Да
Отключение кэша аудио : Да
Использование указателей C2 : Нет

Коррекция смещения при чтении : 48
Способность читать области Lead-in и Lead-out : Нет
Заполнение пропущенных сэмплов тишиной : Да
Удаление блоков с тишиной в начале и конце : Нет
При вычислениях CRC использовались нулевые сэмплы : Да
Интерфейс : Установленный внешний ASPI-интерфейс

Выходной формат : Внутренние WAV-операции
Формат сэмплов : 44.100 Гц; 16 бит; стерео

TOC извлечённого CD

Трек | Старт | Длительность | Начальный сектор | Конечный сектор
———————————————————————
1 | 0:00.00 | 4:44.15 | 0 | 21314
2 | 4:44.15 | 4:20.12 | 21315 | 40826
3 | 9:04.27 | 3:11.03 | 40827 | 55154
4 | 12:15.30 | 3:56.55 | 55155 | 72909
5 | 16:12.10 | 6:27.45 | 72910 | 101979
6 | 22:39.55 | 6:11.35 | 101980 | 129839
7 | 28:51.15 | 4:24.35 | 129840 | 149674
8 | 33:15.50 | 3:20.67 | 149675 | 164741
9 | 36:36.42 | 5:13.65 | 164742 | 188281
10 | 41:50.32 | 4:44.43 | 188282 | 209624
11 | 46:35.00 | 4:29.70 | 209625 | 229869
12 | 51:04.70 | 4:27.05 | 229870 | 249899
13 | 55:32.00 | 4:42.60 | 249900 | 271109

Характеристики диапазона извлечения и сообщения об ошибках

Выбранный диапазон

Имя файла D:\Meat Puppets\Meat Puppets – Monsters 1989\Meat Puppets – Monsters.wav

Пиковый уровень 100.0 %
Качество диапазона 99.9 %
CRC копии 2929CB99
Копирование… OK

Ошибок не произошло

AccurateRip: сводка

Трек 1 нет в базе данных
Трек 2 нет в базе данных
Трек 3 нет в базе данных
Трек 4 нет в базе данных
Трек 5 нет в базе данных
Трек 6 нет в базе данных
Трек 7 нет в базе данных
Трек 8 нет в базе данных
Трек 9 нет в базе данных
Трек 10 нет в базе данных
Трек 11 нет в базе данных
Трек 12 нет в базе данных
Трек 13 нет в базе данных

Ни одного трека нет в базе AccurateRip

Конец отчёта

REM GENRE Rock
REM DATE 1999
REM DISCID CC0E1E0D
REM COMMENT “ExactAudioCopy v0.99pb4”
PERFORMER “Meat Puppets”
TITLE “Monsters”
FILE “Meat Puppets – Monsters.wav” WAVE
TRACK 01 AUDIO
TITLE “Attacked By Monsters”
PERFORMER “Meat Puppets”
FLAGS DCP
INDEX 01 00:00:00
TRACK 02 AUDIO
TITLE “Light”
PERFORMER “Meat Puppets”
FLAGS DCP
INDEX 00 04:42:15
INDEX 01 04:44:15
TRACK 03 AUDIO
TITLE “Meltdown”
PERFORMER “Meat Puppets”
FLAGS DCP
INDEX 00 09:02:27
INDEX 01 09:04:27
TRACK 04 AUDIO
TITLE “In Love”
PERFORMER “Meat Puppets”
FLAGS DCP
INDEX 00 12:13:30
INDEX 01 12:15:30
TRACK 05 AUDIO
TITLE “The Void”
PERFORMER “Meat Puppets”
FLAGS DCP
INDEX 00 16:10:10
INDEX 01 16:12:10
TRACK 06 AUDIO
TITLE “Touchdown King”
PERFORMER “Meat Puppets”
FLAGS DCP
INDEX 00 22:37:55
INDEX 01 22:39:55
TRACK 07 AUDIO
TITLE “Party Till The World Obeys”
PERFORMER “Meat Puppets”
FLAGS DCP
INDEX 00 28:49:15
INDEX 01 28:51:15
TRACK 08 AUDIO
TITLE “Flight Of The Fire Weasel”
PERFORMER “Meat Puppets”
FLAGS DCP
INDEX 00 33:13:50
INDEX 01 33:15:50
TRACK 09 AUDIO
TITLE “Strings On Your Heart”
PERFORMER “Meat Puppets”
FLAGS DCP
INDEX 00 36:34:42
INDEX 01 36:36:42
TRACK 10 AUDIO
TITLE “Like Being Alive”
PERFORMER “Meat Puppets”
FLAGS DCP
INDEX 00 41:48:32
INDEX 01 41:50:32
TRACK 11 AUDIO
TITLE “Wish Upon A Storm”
PERFORMER “Meat Puppets”
FLAGS DCP
INDEX 00 46:33:00
INDEX 01 46:35:00
TRACK 12 AUDIO
TITLE “Flight Of The Fire Weasel Pt. 1”
PERFORMER “Meat Puppets”
FLAGS DCP
INDEX 00 51:02:70
INDEX 01 51:04:70
TRACK 13 AUDIO
TITLE “Flight Of The Fire Weasel Pt. 2”
PERFORMER “Meat Puppets”
FLAGS DCP
INDEX 00 55:30:00
INDEX 01 55:32:00

Leave a Reply

Your email address will not be published. Required fields are marked *

This site uses Akismet to reduce spam. Learn how your comment data is processed.