Meat Puppets – Mirage (Remastered)




Artist: Meat Puppets
Year: 1987/1999
Genre: Rock
Notes: Discogs
Add. Notes: Remastered
Cover incl.: Yes
Encoder: FLAC
Bitrate: ~900 kBit/s (44.1 kHz/16 Bit/s)
Log & Cue incl.: Yes
Size: 366,9 MB
Password: “slam” (without ” “)


All Downloads/Hosters are compatible

Download 1
Turbobit.net
KatFile.com
Rapidgator.net
NitroFlare.com
Download 2
Turbobit.net
KatFile.com
Rapidgator.net
NitroFlare.com

Tracklist:

1 - Mirage - 3:42
2 - Quit It - 2:38
3 - Confusion Fog - 3:53
4 - The Wind And The Rain - 2:59
5 - The Mighty Zero - 3:18
6 - Get On Down - 2:57
7 - Leaves - 2:41
8 - I Am A Machine - 4:25
9 - Beauty - 3:04
10 - A Hundred Miles - 3:36
11 - Love Our Children Forever - 3:59
12 - Liquified - 3:11
13 - The Mighty Zero - 3:41
14 - I Am A Machine - 4:06
15 - Liquified - 3:40
16 - Rubberneckin' - 2:47
17 - Grand Intro - 2:06

EAC-Log, CUE-Sheed & NFO:

Click to open spoiler
Exact Audio Copy V0.99 prebeta 4 from 23. January 2008

Отчёт EAC об извлечении, выполненном 13. августа 2009, 11:45

Meat Puppets / Mirage

Дисковод: Optiarc DVD RW AD-5170A Adapter: 0 ID: 0

Режим чтения : Достоверность
Использование точного потока : Да
Отключение кэша аудио : Да
Использование указателей C2 : Нет

Коррекция смещения при чтении : 48
Способность читать области Lead-in и Lead-out : Нет
Заполнение пропущенных сэмплов тишиной : Да
Удаление блоков с тишиной в начале и конце : Нет
При вычислениях CRC использовались нулевые сэмплы : Да
Интерфейс : Установленный внешний ASPI-интерфейс

Выходной формат : Внутренние WAV-операции
Формат сэмплов : 44.100 Гц; 16 бит; стерео

TOC извлечённого CD

Трек | Старт | Длительность | Начальный сектор | Конечный сектор
———————————————————————
1 | 0:00.00 | 3:43.42 | 0 | 16766
2 | 3:43.42 | 2:40.03 | 16767 | 28769
3 | 6:23.45 | 3:55.02 | 28770 | 46396
4 | 10:18.47 | 3:00.50 | 46397 | 59946
5 | 13:19.22 | 3:20.20 | 59947 | 74966
6 | 16:39.42 | 2:58.55 | 74967 | 88371
7 | 19:38.22 | 2:42.63 | 88372 | 100584
8 | 22:21.10 | 4:26.42 | 100585 | 120576
9 | 26:47.52 | 3:06.08 | 120577 | 134534
10 | 29:53.60 | 3:38.17 | 134535 | 150901
11 | 33:32.02 | 4:00.63 | 150902 | 168964
12 | 37:32.65 | 3:13.30 | 168965 | 183469
13 | 40:46.20 | 3:42.62 | 183470 | 200181
14 | 44:29.07 | 4:07.73 | 200182 | 218779
15 | 48:37.05 | 3:41.47 | 218780 | 235401
16 | 52:18.52 | 2:48.53 | 235402 | 248054
17 | 55:07.30 | 2:03.52 | 248055 | 257331

Характеристики диапазона извлечения и сообщения об ошибках

Выбранный диапазон

Имя файла D:\Meat Puppets – Дискография\1987 – Mirage\Meat Puppets – Mirage.wav

Пиковый уровень 100.0 %
Качество диапазона 100.0 %
CRC копии 9B7934C0
Копирование… OK

Ошибок не произошло

AccurateRip: сводка

Трек 1 нет в базе данных
Трек 2 нет в базе данных
Трек 3 нет в базе данных
Трек 4 нет в базе данных
Трек 5 нет в базе данных
Трек 6 нет в базе данных
Трек 7 нет в базе данных
Трек 8 нет в базе данных
Трек 9 нет в базе данных
Трек 10 нет в базе данных
Трек 11 нет в базе данных
Трек 12 нет в базе данных
Трек 13 нет в базе данных
Трек 14 нет в базе данных
Трек 15 нет в базе данных
Трек 16 нет в базе данных
Трек 17 нет в базе данных

Ни одного трека нет в базе AccurateRip

Конец отчёта

REM GENRE Rock
REM DATE 2000
REM DISCID CB0D6711
REM COMMENT “ExactAudioCopy v0.99pb4”
PERFORMER “Meat Puppets”
TITLE “Mirage”
FILE “Meat Puppets – Mirage.wav” WAVE
TRACK 01 AUDIO
TITLE “Mirage”
PERFORMER “Meat Puppets”
FLAGS DCP
INDEX 01 00:00:00
TRACK 02 AUDIO
TITLE “Quit It”
PERFORMER “Meat Puppets”
FLAGS DCP
INDEX 00 03:41:42
INDEX 01 03:43:42
TRACK 03 AUDIO
TITLE “Confusion Fog”
PERFORMER “Meat Puppets”
FLAGS DCP
INDEX 00 06:21:45
INDEX 01 06:23:45
TRACK 04 AUDIO
TITLE “The Wind And The Rain”
PERFORMER “Meat Puppets”
FLAGS DCP
INDEX 00 10:16:47
INDEX 01 10:18:47
TRACK 05 AUDIO
TITLE “The Mighty Zero”
PERFORMER “Meat Puppets”
FLAGS DCP
INDEX 00 13:17:22
INDEX 01 13:19:22
TRACK 06 AUDIO
TITLE “Get On Down”
PERFORMER “Meat Puppets”
FLAGS DCP
INDEX 00 16:37:42
INDEX 01 16:39:42
TRACK 07 AUDIO
TITLE “Leaves”
PERFORMER “Meat Puppets”
FLAGS DCP
INDEX 00 19:36:22
INDEX 01 19:38:22
TRACK 08 AUDIO
TITLE “I Am A Machine”
PERFORMER “Meat Puppets”
FLAGS DCP
INDEX 00 22:19:10
INDEX 01 22:21:10
TRACK 09 AUDIO
TITLE “Beauty”
PERFORMER “Meat Puppets”
FLAGS DCP
INDEX 00 26:45:52
INDEX 01 26:47:52
TRACK 10 AUDIO
TITLE “A Hundred Miles”
PERFORMER “Meat Puppets”
FLAGS DCP
INDEX 00 29:51:60
INDEX 01 29:53:60
TRACK 11 AUDIO
TITLE “Love Our Children Forever”
PERFORMER “Meat Puppets”
FLAGS DCP
INDEX 00 33:30:02
INDEX 01 33:32:02
TRACK 12 AUDIO
TITLE “Liquified”
PERFORMER “Meat Puppets”
FLAGS DCP
INDEX 00 37:30:65
INDEX 01 37:32:65
TRACK 13 AUDIO
TITLE “The Mighty Zero”
PERFORMER “Meat Puppets”
FLAGS DCP
INDEX 00 40:44:20
INDEX 01 40:46:20
TRACK 14 AUDIO
TITLE “I Am A Machine”
PERFORMER “Meat Puppets”
FLAGS DCP
INDEX 00 44:27:07
INDEX 01 44:29:07
TRACK 15 AUDIO
TITLE “Liquified”
PERFORMER “Meat Puppets”
FLAGS DCP
INDEX 00 48:35:05
INDEX 01 48:37:05
TRACK 16 AUDIO
TITLE “Rubberneckin'”
PERFORMER “Meat Puppets”
FLAGS DCP
INDEX 00 52:16:52
INDEX 01 52:18:52
TRACK 17 AUDIO
TITLE “Grand Intro”
PERFORMER “Meat Puppets”
FLAGS DCP
INDEX 00 55:05:30
INDEX 01 55:07:30


Leave a Reply

Your email address will not be published. Required fields are marked *

Enter the text from the image below
 

This site uses Akismet to reduce spam. Learn how your comment data is processed.