Meat Puppets – Meat Puppets (Remastered)




Artist: Meat Puppets
Year: 1982/1999
Genre: Rock
Notes: Discogs
Add. Notes: Remastered
Cover incl.: No
Encoder: FLAC
Bitrate: ~1000 kBit/s (44.1 kHz/16 Bit/s)
Log & Cue incl.: Yes
Size: 332,6 MB
Password: “slam” (without ” “)


All Downloads/Hosters are compatible

Download 1
Turbobit.net
Rapidgator.net
KatFile.com
UsersDrive.com
CloudShare.to
Download 2
Turbobit.net
Rapidgator.net
KatFile.com
UsersDrive.com
CloudShare.to
Download 3
Turbobit.net
Rapidgator.net
KatFile.com
UsersDrive.com
CloudShare.to

Tracklist:

1 - Reward - 1:12
2 - Love Offering - 1:29
3 - Blue-Green God - 1:23
4 - Walking Boss - 2:52
5 - Melons Rising - 0:53
6 - Saturday Morning - 1:30
7 - Our Friends - 2:12
8 - Tumblin' Tumbleweeds - 2:03
9 - Milo Sorghum And Maize - 2:16
10 - Meat Puppets - 1:38
11 - Playing Dead - 1:28
12 - Litter Box - 0:50
13 - Electromud - 0:48
14 - The Gold Mine - 1:02
In A Car
15 - In A Car - 1:21
16 - Big House - 1:07
17 - Dolphin Field - 1:09
18 - Out In The Gardener - 1:04
19 - Foreign Lawns - 0:37
Bonus Tracks
20 - Meat Puppets - 1:33
21 - Everybody's Talking - 2:42
22 - H-Elenore - 1:39
23 - Hair - 1:26
24 - I Got A Right - 2:40
25 - I Am A Child - 2:14
26 - Franklin's Tower - 4:52
27 - Milo Sorghum & Maize - 1:32
28 - Electromud - 0:45
29 - Love Offering - 1:03
30 - Saturday Morning - 1:11
31 - Magic Toy Missing - 1:28
32 - Unpleasant - 1:02

EAC-Log, CUE-Sheed & NFO:

Click to open spoiler
Exact Audio Copy V0.99 prebeta 5 from 4. May 2009

EAC extraction logfile from 21. June 2009, 23:00

Meat Puppets / Meat Puppets

Used drive : PHILIPS DVD+-RW DVD8631 Adapter: 1 ID: 0

Read mode : Secure
Utilize accurate stream : Yes
Defeat audio cache : Yes
Make use of C2 pointers : No

Read offset correction : 618
Overread into Lead-In and Lead-Out : No
Fill up missing offset samples with silence : Yes
Delete leading and trailing silent blocks : No
Null samples used in CRC calculations : Yes
Used interface : Installed external ASPI interface
Gap handling : Appended to previous track

Used output format : Internal WAV Routines
Sample format : 44.100 Hz; 16 Bit; Stereo

TOC of the extracted CD

Track | Start | Length | Start sector | End sector
———————————————————
1 | 0:00.00 | 1:11.40 | 0 | 5364
2 | 1:11.40 | 1:28.42 | 5365 | 12006
3 | 2:40.07 | 1:22.68 | 12007 | 18224
4 | 4:03.00 | 2:52.10 | 18225 | 31134
5 | 6:55.10 | 0:53.17 | 31135 | 35126
6 | 7:48.27 | 1:30.25 | 35127 | 41901
7 | 9:18.52 | 2:11.40 | 41902 | 51766
8 | 11:30.17 | 2:02.53 | 51767 | 60969
9 | 13:32.70 | 2:15.57 | 60970 | 71151
10 | 15:48.52 | 1:38.23 | 71152 | 78524
11 | 17:27.00 | 1:28.17 | 78525 | 85141
12 | 18:55.17 | 0:50.30 | 85142 | 88921
13 | 19:45.47 | 0:47.53 | 88922 | 92499
14 | 20:33.25 | 1:02.32 | 92500 | 97181
15 | 21:35.57 | 1:21.05 | 97182 | 103261
16 | 22:56.62 | 1:06.68 | 103262 | 108279
17 | 24:03.55 | 1:09.00 | 108280 | 113454
18 | 25:12.55 | 1:03.40 | 113455 | 118219
19 | 26:16.20 | 0:37.00 | 118220 | 120994
20 | 26:53.20 | 1:33.07 | 120995 | 127976
21 | 28:26.27 | 2:41.40 | 127977 | 140091
22 | 31:07.67 | 1:39.20 | 140092 | 147536
23 | 32:47.12 | 1:25.55 | 147537 | 153966
24 | 34:12.67 | 2:40.35 | 153967 | 166001
25 | 36:53.27 | 2:14.18 | 166002 | 176069
26 | 39:07.45 | 4:51.67 | 176070 | 197961
27 | 43:59.37 | 1:32.13 | 197962 | 204874
28 | 45:31.50 | 0:45.17 | 204875 | 208266
29 | 46:16.67 | 1:02.63 | 208267 | 212979
30 | 47:19.55 | 1:11.12 | 212980 | 218316
31 | 48:30.67 | 1:27.50 | 218317 | 224891
32 | 49:58.42 | 1:02.25 | 224892 | 229566
33 | 53:32.67 | 6:46.66 | 240967 | 271482

Track 1

Filename [CENSORED]\Meat Puppets – Meat Puppets (Remastered & Expanded)\Meat Puppets – Meat Puppets – 01 – Reward.wav

Pre-gap length 0:00:02.00

Peak level 98.7 %
Track quality 100.0 %
Test CRC EC063163
Copy CRC EC063163
Accurately ripped (confidence 10) [C0547A7D]
Copy OK

Track 2

Filename [CENSORED]\Meat Puppets – Meat Puppets (Remastered & Expanded)\Meat Puppets – Meat Puppets – 02 – Love Offering.wav

Pre-gap length 0:00:02.59

Peak level 98.7 %
Track quality 100.0 %
Test CRC 04A07CCC
Copy CRC 04A07CCC
Accurately ripped (confidence 10) [C431752F]
Copy OK

Track 3

Filename [CENSORED]\Meat Puppets – Meat Puppets (Remastered & Expanded)\Meat Puppets – Meat Puppets – 03 – Blue-Green God.wav

Pre-gap length 0:00:02.31

Peak level 93.2 %
Track quality 100.0 %
Test CRC E2D74F50
Copy CRC E2D74F50
Accurately ripped (confidence 10) [F2CA3356]
Copy OK

Track 4

Filename [CENSORED]\Meat Puppets – Meat Puppets (Remastered & Expanded)\Meat Puppets – Meat Puppets – 04 – Walking Boss.wav

Pre-gap length 0:00:02.11

Peak level 96.6 %
Track quality 100.0 %
Test CRC 23C1FFF9
Copy CRC 23C1FFF9
Accurately ripped (confidence 10) [1AABB5D5]
Copy OK

Track 5

Filename [CENSORED]\Meat Puppets – Meat Puppets (Remastered & Expanded)\Meat Puppets – Meat Puppets – 05 – Melons Rising.wav

Pre-gap length 0:00:02.15

Peak level 93.5 %
Track quality 100.0 %
Test CRC EDECD991
Copy CRC EDECD991
Accurately ripped (confidence 10) [AAAE28A9]
Copy OK

Track 6

Filename [CENSORED]\Meat Puppets – Meat Puppets (Remastered & Expanded)\Meat Puppets – Meat Puppets – 06 – Saturday Morning.wav

Pre-gap length 0:00:03.32

Peak level 92.6 %
Track quality 99.8 %
Test CRC 35962B27
Copy CRC 35962B27
Accurately ripped (confidence 10) [D4C5C3BF]
Copy OK

Track 7

Filename [CENSORED]\Meat Puppets – Meat Puppets (Remastered & Expanded)\Meat Puppets – Meat Puppets – 07 – Our Friends.wav

Pre-gap length 0:00:02.37

Peak level 93.0 %
Track quality 100.0 %
Test CRC 562F4382
Copy CRC 562F4382
Accurately ripped (confidence 10) [09E141ED]
Copy OK

Track 8

Filename [CENSORED]\Meat Puppets – Meat Puppets (Remastered & Expanded)\Meat Puppets – Meat Puppets – 08 – Tumblin’ Tumbleweeds.wav

Pre-gap length 0:00:02.23

Peak level 98.9 %
Track quality 100.0 %
Test CRC 81866FCA
Copy CRC 81866FCA
Accurately ripped (confidence 10) [42512E9F]
Copy OK

Track 9

Filename [CENSORED]\Meat Puppets – Meat Puppets (Remastered & Expanded)\Meat Puppets – Meat Puppets – 09 – Milo Sorghum And Maize.wav

Pre-gap length 0:00:02.02

Peak level 96.1 %
Track quality 100.0 %
Test CRC 4341906B
Copy CRC 4341906B
Accurately ripped (confidence 10) [D3A7CC93]
Copy OK

Track 10

Filename [CENSORED]\Meat Puppets – Meat Puppets (Remastered & Expanded)\Meat Puppets – Meat Puppets – 10 – Meat Puppets.wav

Pre-gap length 0:00:02.33

Peak level 94.2 %
Track quality 100.0 %
Test CRC 9F243BDA
Copy CRC 9F243BDA
Accurately ripped (confidence 10) [ECA2F094]
Copy OK

Track 11

Filename [CENSORED]\Meat Puppets – Meat Puppets (Remastered & Expanded)\Meat Puppets – Meat Puppets – 11 – Playing Dead.wav

Pre-gap length 0:00:02.65

Peak level 96.4 %
Track quality 100.0 %
Test CRC 827D6275
Copy CRC 827D6275
Accurately ripped (confidence 10) [00F61204]
Copy OK

Track 12

Filename [CENSORED]\Meat Puppets – Meat Puppets (Remastered & Expanded)\Meat Puppets – Meat Puppets – 12 – Litter Box.wav

Pre-gap length 0:00:02.29

Peak level 92.2 %
Track quality 100.0 %
Test CRC 9954CFF0
Copy CRC 9954CFF0
Accurately ripped (confidence 10) [BA7D9688]
Copy OK

Track 13

Filename [CENSORED]\Meat Puppets – Meat Puppets (Remastered & Expanded)\Meat Puppets – Meat Puppets – 13 – Electromud.wav

Pre-gap length 0:00:03.12

Peak level 89.3 %
Track quality 100.0 %
Test CRC D7FCC98B
Copy CRC D7FCC98B
Accurately ripped (confidence 10) [6DB92010]
Copy OK

Track 14

Filename [CENSORED]\Meat Puppets – Meat Puppets (Remastered & Expanded)\Meat Puppets – Meat Puppets – 14 – The Gold Mine.wav

Pre-gap length 0:00:02.68

Peak level 95.9 %
Track quality 99.8 %
Test CRC 2B08A72A
Copy CRC 2B08A72A
Accurately ripped (confidence 10) [AE6ED45F]
Copy OK

Track 15

Filename [CENSORED]\Meat Puppets – Meat Puppets (Remastered & Expanded)\Meat Puppets – Meat Puppets – 15 – In A Car.wav

Pre-gap length 0:00:02.16

Peak level 90.0 %
Track quality 100.0 %
Test CRC B0620514
Copy CRC B0620514
Accurately ripped (confidence 10) [594C2A78]
Copy OK

Track 16

Filename [CENSORED]\Meat Puppets – Meat Puppets (Remastered & Expanded)\Meat Puppets – Meat Puppets – 16 – Big House.wav

Pre-gap length 0:00:02.05

Peak level 86.1 %
Track quality 100.0 %
Test CRC 0975FC13
Copy CRC 0975FC13
Accurately ripped (confidence 10) [B84449A8]
Copy OK

Track 17

Filename [CENSORED]\Meat Puppets – Meat Puppets (Remastered & Expanded)\Meat Puppets – Meat Puppets – 17 – Dolphin Field.wav

Pre-gap length 0:00:02.37

Peak level 86.9 %
Track quality 100.0 %
Test CRC 11EF5B91
Copy CRC 11EF5B91
Accurately ripped (confidence 10) [15370F92]
Copy OK

Track 18

Filename [CENSORED]\Meat Puppets – Meat Puppets (Remastered & Expanded)\Meat Puppets – Meat Puppets – 18 – Out In The Gardener.wav

Pre-gap length 0:00:02.47

Peak level 100.0 %
Track quality 100.0 %
Test CRC 9E61B077
Copy CRC 9E61B077
Accurately ripped (confidence 10) [090B917E]
Copy OK

Track 19

Filename [CENSORED]\Meat Puppets – Meat Puppets (Remastered & Expanded)\Meat Puppets – Meat Puppets – 19 – Foreign Lawns.wav

Pre-gap length 0:00:02.21

Peak level 77.9 %
Track quality 100.0 %
Test CRC FE5B9FCD
Copy CRC FE5B9FCD
Accurately ripped (confidence 10) [18B8B0D0]
Copy OK

Track 20

Filename [CENSORED]\Meat Puppets – Meat Puppets (Remastered & Expanded)\Meat Puppets – Meat Puppets – 20 – Meat Puppets (1980 Demo).wav

Pre-gap length 0:00:03.14

Peak level 89.1 %
Track quality 100.0 %
Test CRC 89068AB9
Copy CRC 89068AB9
Accurately ripped (confidence 10) [78F30745]
Copy OK

Track 21

Filename [CENSORED]\Meat Puppets – Meat Puppets (Remastered & Expanded)\Meat Puppets – Meat Puppets – 21 – Everybody’s Talking (1981 Practice Session Demo).wav

Pre-gap length 0:00:02.47

Peak level 97.7 %
Track quality 100.0 %
Test CRC 9EC87E9C
Copy CRC 9EC87E9C
Accurately ripped (confidence 10) [7E70AD53]
Copy OK

Track 22

Filename [CENSORED]\Meat Puppets – Meat Puppets (Remastered & Expanded)\Meat Puppets – Meat Puppets – 22 – H-Elenore (1981 4-Track Demo).wav

Pre-gap length 0:00:01.71

Peak level 96.6 %
Track quality 99.8 %
Test CRC 63CE9F1F
Copy CRC 63CE9F1F
Accurately ripped (confidence 10) [42D022E8]
Copy OK

Track 23

Filename [CENSORED]\Meat Puppets – Meat Puppets (Remastered & Expanded)\Meat Puppets – Meat Puppets – 23 – Hair (Monitor).wav

Pre-gap length 0:00:02.68

Peak level 98.6 %
Track quality 100.0 %
Test CRC DF4223A0
Copy CRC DF4223A0
Accurately ripped (confidence 10) [54A498E2]
Copy OK

Track 24

Filename [CENSORED]\Meat Puppets – Meat Puppets (Remastered & Expanded)\Meat Puppets – Meat Puppets – 24 – I Got A Right (Album Warm-Up Session).wav

Pre-gap length 0:00:02.20

Peak level 98.7 %
Track quality 100.0 %
Test CRC FD21F963
Copy CRC FD21F963
Accurately ripped (confidence 10) [94463C05]
Copy OK

Track 25

Filename [CENSORED]\Meat Puppets – Meat Puppets (Remastered & Expanded)\Meat Puppets – Meat Puppets – 25 – I Am A Child (Album Warm-Up Session).wav

Pre-gap length 0:00:03.16

Peak level 98.9 %
Track quality 100.0 %
Test CRC A959FA89
Copy CRC A959FA89
Accurately ripped (confidence 10) [2E7B1484]
Copy OK

Track 26

Filename [CENSORED]\Meat Puppets – Meat Puppets (Remastered & Expanded)\Meat Puppets – Meat Puppets – 26 – Franklin’s Tower (Album Warm-Up Session).wav

Pre-gap length 0:00:02.29

Peak level 96.4 %
Track quality 99.9 %
Test CRC BBD5BEA0
Copy CRC BBD5BEA0
Accurately ripped (confidence 10) [EB35E1EA]
Copy OK

Track 27

Filename [CENSORED]\Meat Puppets – Meat Puppets (Remastered & Expanded)\Meat Puppets – Meat Puppets – 27 – Milo Sorghum & Maize (Unpleasant Warm-Up Session).wav

Pre-gap length 0:00:02.52

Peak level 92.1 %
Track quality 100.0 %
Test CRC 3CB1312A
Copy CRC 3CB1312A
Accurately ripped (confidence 10) [AC605357]
Copy OK

Track 28

Filename [CENSORED]\Meat Puppets – Meat Puppets (Remastered & Expanded)\Meat Puppets – Meat Puppets – 28 – Electromud (Unpleasant Warm-Up Session).wav

Pre-gap length 0:00:02.44

Peak level 98.0 %
Track quality 100.0 %
Test CRC 08647327
Copy CRC 08647327
Accurately ripped (confidence 10) [9D67BD5A]
Copy OK

Track 29

Filename [CENSORED]\Meat Puppets – Meat Puppets (Remastered & Expanded)\Meat Puppets – Meat Puppets – 29 – Love Offering (Unpleasant Warm-Up Session).wav

Pre-gap length 0:00:02.51

Peak level 99.6 %
Track quality 100.0 %
Test CRC 46910628
Copy CRC 46910628
Accurately ripped (confidence 10) [7AD6650E]
Copy OK

Track 30

Filename [CENSORED]\Meat Puppets – Meat Puppets (Remastered & Expanded)\Meat Puppets – Meat Puppets – 30 – Saturday Morning (Unpleasant Warm-Up Session).wav

Pre-gap length 0:00:02.18

Peak level 96.1 %
Track quality 100.0 %
Test CRC ABCEC905
Copy CRC ABCEC905
Accurately ripped (confidence 10) [2597001A]
Copy OK

Track 31

Filename [CENSORED]\Meat Puppets – Meat Puppets (Remastered & Expanded)\Meat Puppets – Meat Puppets – 31 – Magic Toy Missing (Unpleasant Warm-Up Session).wav

Pre-gap length 0:00:02.57

Peak level 97.4 %
Track quality 99.8 %
Test CRC 0DCC8C82
Copy CRC 0DCC8C82
Accurately ripped (confidence 10) [34A3A277]
Copy OK

Track 32

Filename [CENSORED]\Meat Puppets – Meat Puppets (Remastered & Expanded)\Meat Puppets – Meat Puppets – 32 – Unpleasant.wav

Pre-gap length 0:00:02.28

Peak level 98.1 %
Track quality 100.0 %
Test CRC B5EDAB11
Copy CRC B5EDAB11
Accurately ripped (confidence 10) [B94E6EC3]
Copy OK

All tracks accurately ripped

No errors occurred

End of status report

REM GENRE Punk
REM DATE 1982
REM DISCID CC0E2321
REM COMMENT “ExactAudioCopy v0.99pb5”
PERFORMER “Meat Puppets”
TITLE “Meat Puppets”
FILE “Meat Puppets – Meat Puppets – 01 – Reward.wav” WAVE
TRACK 01 AUDIO
TITLE “Reward”
PERFORMER “Meat Puppets”
FLAGS DCP
INDEX 01 00:00:00
TRACK 02 AUDIO
TITLE “Love Offering”
PERFORMER “Meat Puppets”
FLAGS DCP
INDEX 00 01:08:56
FILE “Meat Puppets – Meat Puppets – 02 – Love Offering.wav” WAVE
INDEX 01 00:00:00
TRACK 03 AUDIO
TITLE “Blue-Green God”
PERFORMER “Meat Puppets”
FLAGS DCP
INDEX 00 01:26:11
FILE “Meat Puppets – Meat Puppets – 03 – Blue-Green God.wav” WAVE
INDEX 01 00:00:00
TRACK 04 AUDIO
TITLE “Walking Boss”
PERFORMER “Meat Puppets”
FLAGS DCP
INDEX 00 01:20:57
FILE “Meat Puppets – Meat Puppets – 04 – Walking Boss.wav” WAVE
INDEX 01 00:00:00
TRACK 05 AUDIO
TITLE “Melons Rising”
PERFORMER “Meat Puppets”
FLAGS DCP
INDEX 00 02:49:70
FILE “Meat Puppets – Meat Puppets – 05 – Melons Rising.wav” WAVE
INDEX 01 00:00:00
TRACK 06 AUDIO
TITLE “Saturday Morning”
PERFORMER “Meat Puppets”
FLAGS DCP
INDEX 00 00:49:60
FILE “Meat Puppets – Meat Puppets – 06 – Saturday Morning.wav” WAVE
INDEX 01 00:00:00
TRACK 07 AUDIO
TITLE “Our Friends”
PERFORMER “Meat Puppets”
FLAGS DCP
INDEX 00 01:27:63
FILE “Meat Puppets – Meat Puppets – 07 – Our Friends.wav” WAVE
INDEX 01 00:00:00
TRACK 08 AUDIO
TITLE “Tumblin’ Tumbleweeds”
PERFORMER “Meat Puppets”
FLAGS DCP
INDEX 00 02:09:17
FILE “Meat Puppets – Meat Puppets – 08 – Tumblin’ Tumbleweeds.wav” WAVE
INDEX 01 00:00:00
TRACK 09 AUDIO
TITLE “Milo Sorghum And Maize”
PERFORMER “Meat Puppets”
FLAGS DCP
INDEX 00 02:00:51
FILE “Meat Puppets – Meat Puppets – 09 – Milo Sorghum And Maize.wav” WAVE
INDEX 01 00:00:00
TRACK 10 AUDIO
TITLE “Meat Puppets”
PERFORMER “Meat Puppets”
FLAGS DCP
INDEX 00 02:13:24
FILE “Meat Puppets – Meat Puppets – 10 – Meat Puppets.wav” WAVE
INDEX 01 00:00:00
TRACK 11 AUDIO
TITLE “Playing Dead”
PERFORMER “Meat Puppets”
FLAGS DCP
INDEX 00 01:35:33
FILE “Meat Puppets – Meat Puppets – 11 – Playing Dead.wav” WAVE
INDEX 01 00:00:00
TRACK 12 AUDIO
TITLE “Litter Box”
PERFORMER “Meat Puppets”
FLAGS DCP
INDEX 00 01:25:63
FILE “Meat Puppets – Meat Puppets – 12 – Litter Box.wav” WAVE
INDEX 01 00:00:00
TRACK 13 AUDIO
TITLE “Electromud”
PERFORMER “Meat Puppets”
FLAGS DCP
INDEX 00 00:47:18
FILE “Meat Puppets – Meat Puppets – 13 – Electromud.wav” WAVE
INDEX 01 00:00:00
TRACK 14 AUDIO
TITLE “The Gold Mine”
PERFORMER “Meat Puppets”
FLAGS DCP
INDEX 00 00:44:60
FILE “Meat Puppets – Meat Puppets – 14 – The Gold Mine.wav” WAVE
INDEX 01 00:00:00
TRACK 15 AUDIO
TITLE “In A Car”
PERFORMER “Meat Puppets”
FLAGS DCP
INDEX 00 01:00:16
FILE “Meat Puppets – Meat Puppets – 15 – In A Car.wav” WAVE
INDEX 01 00:00:00
TRACK 16 AUDIO
TITLE “Big House”
PERFORMER “Meat Puppets”
FLAGS DCP
INDEX 00 01:19:00
FILE “Meat Puppets – Meat Puppets – 16 – Big House.wav” WAVE
INDEX 01 00:00:00
TRACK 17 AUDIO
TITLE “Dolphin Field”
PERFORMER “Meat Puppets”
FLAGS DCP
INDEX 00 01:04:31
FILE “Meat Puppets – Meat Puppets – 17 – Dolphin Field.wav” WAVE
INDEX 01 00:00:00
TRACK 18 AUDIO
TITLE “Out In The Gardener”
PERFORMER “Meat Puppets”
FLAGS DCP
INDEX 00 01:06:28
FILE “Meat Puppets – Meat Puppets – 18 – Out In The Gardener.wav” WAVE
INDEX 01 00:00:00
TRACK 19 AUDIO
TITLE “Foreign Lawns”
PERFORMER “Meat Puppets”
FLAGS DCP
INDEX 00 01:01:19
FILE “Meat Puppets – Meat Puppets – 19 – Foreign Lawns.wav” WAVE
INDEX 01 00:00:00
TRACK 20 AUDIO
TITLE “Meat Puppets (1980 Demo)”
PERFORMER “Meat Puppets”
FLAGS DCP
INDEX 00 00:33:61
FILE “Meat Puppets – Meat Puppets – 20 – Meat Puppets (1980 Demo).wav” WAVE
INDEX 01 00:00:00
TRACK 21 AUDIO
TITLE “Everybody’s Talking (1981 Practice Session Demo)”
PERFORMER “Meat Puppets”
FLAGS DCP
INDEX 00 01:30:35
FILE “Meat Puppets – Meat Puppets – 21 – Everybody’s Talking (1981 Practice Session Demo).wav” WAVE
INDEX 01 00:00:00
TRACK 22 AUDIO
TITLE “H-Elenore (1981 4-Track Demo)”
PERFORMER “Meat Puppets”
FLAGS DCP
INDEX 00 02:39:44
FILE “Meat Puppets – Meat Puppets – 22 – H-Elenore (1981 4-Track Demo).wav” WAVE
INDEX 01 00:00:00
TRACK 23 AUDIO
TITLE “Hair (Monitor)”
PERFORMER “Meat Puppets”
FLAGS DCP
INDEX 00 01:36:27
FILE “Meat Puppets – Meat Puppets – 23 – Hair (Monitor).wav” WAVE
INDEX 01 00:00:00
TRACK 24 AUDIO
TITLE “I Got A Right (Album Warm-Up Session)”
PERFORMER “Meat Puppets”
FLAGS DCP
INDEX 00 01:23:35
FILE “Meat Puppets – Meat Puppets – 24 – I Got A Right (Album Warm-Up Session).wav” WAVE
INDEX 01 00:00:00
TRACK 25 AUDIO
TITLE “I Am A Child (Album Warm-Up Session)”
PERFORMER “Meat Puppets”
FLAGS DCP
INDEX 00 02:37:19
FILE “Meat Puppets – Meat Puppets – 25 – I Am A Child (Album Warm-Up Session).wav” WAVE
INDEX 01 00:00:00
TRACK 26 AUDIO
TITLE “Franklin’s Tower (Album Warm-Up Session)”
PERFORMER “Meat Puppets”
FLAGS DCP
INDEX 00 02:11:64
FILE “Meat Puppets – Meat Puppets – 26 – Franklin’s Tower (Album Warm-Up Session).wav” WAVE
INDEX 01 00:00:00
TRACK 27 AUDIO
TITLE “Milo Sorghum & Maize (Unpleasant Warm-Up Session)”
PERFORMER “Meat Puppets”
FLAGS DCP
INDEX 00 04:49:15
FILE “Meat Puppets – Meat Puppets – 27 – Milo Sorghum & Maize (Unpleasant Warm-Up Session).wav” WAVE
INDEX 01 00:00:00
TRACK 28 AUDIO
TITLE “Electromud (Unpleasant Warm-Up Session)”
PERFORMER “Meat Puppets”
FLAGS DCP
INDEX 00 01:29:44
FILE “Meat Puppets – Meat Puppets – 28 – Electromud (Unpleasant Warm-Up Session).wav” WAVE
INDEX 01 00:00:00
TRACK 29 AUDIO
TITLE “Love Offering (Unpleasant Warm-Up Session)”
PERFORMER “Meat Puppets”
FLAGS DCP
INDEX 00 00:42:41
FILE “Meat Puppets – Meat Puppets – 29 – Love Offering (Unpleasant Warm-Up Session).wav” WAVE
INDEX 01 00:00:00
TRACK 30 AUDIO
TITLE “Saturday Morning (Unpleasant Warm-Up Session)”
PERFORMER “Meat Puppets”
FLAGS DCP
INDEX 00 01:00:45
FILE “Meat Puppets – Meat Puppets – 30 – Saturday Morning (Unpleasant Warm-Up Session).wav” WAVE
INDEX 01 00:00:00
TRACK 31 AUDIO
TITLE “Magic Toy Missing (Unpleasant Warm-Up Session)”
PERFORMER “Meat Puppets”
FLAGS DCP
INDEX 00 01:08:30
FILE “Meat Puppets – Meat Puppets – 31 – Magic Toy Missing (Unpleasant Warm-Up Session).wav” WAVE
INDEX 01 00:00:00
TRACK 32 AUDIO
TITLE “Unpleasant”
PERFORMER “Meat Puppets”
FLAGS DCP
INDEX 00 01:25:22
FILE “Meat Puppets – Meat Puppets – 32 – Unpleasant.wav” WAVE
INDEX 01 00:00:00
TRACK 33 MODEx/2xxx
TITLE “DATA”
PERFORMER “Meat Puppets”
INDEX 00 01:02:25

Leave a Reply

Your email address will not be published. Required fields are marked *

This site uses Akismet to reduce spam. Learn how your comment data is processed.