Meat Puppets – Meat Puppets II (Remastered)




Artist: Meat Puppets
Year: 1983/1999
Genre: Rock
Notes: Discogs
Add. Notes: Remastered
Cover incl.: Yes
Encoder: FLAC
Bitrate: ~900 kBit/s (44.1 kHz/16 Bit/s)
Log & Cue incl.: Yes
Size: 324,7 MB
Password: “slam” (without ” “)


All Downloads/Hosters are compatible

Download 1
Turbobit.net
Rapidgator.net
KatFile.com
UsersDrive.com
CloudShare.to
Download 2
Turbobit.net
Rapidgator.net
KatFile.com
UsersDrive.com
CloudShare.to
Download 3
Turbobit.net
Rapidgator.net
KatFile.com
UsersDrive.com
CloudShare.to

Tracklist:

1 - Split Myself In Two - 2:24
2 - Magic Toy Missing - 1:22
3 - Lost - 3:26
4 - Plateau - 2:22
5 - Aurora Borealis - 2:45
6 - We're Here - 2:43
7 - Climbing - 2:43
8 - New Gods - 2:13
9 - Oh, Me - 3:02
10 - Lake Of Fire - 1:57
11 - I'm A Mindless Idiot - 2:30
12 - The Whistling Song - 2:57
Bonus Tracks
13 - Teenager(s) - 3:36
14 - I'm Not Here - 1:55
15 - New Gods - 2:14
16 - Lost - 3:03
17 - What To Do - 2:35
18 - 100% Of Nothing - 1:50
19 - Aurora Borealis - 2:29

EAC-Log, CUE-Sheed & NFO:

Click to open spoiler
EAC extraction logfile from 9. December 2007, 11:07 for CD
Meat Puppets / Meat Puppets II

Used drive : SONY CD-RW CRX230EE Adapter: 0 ID: 0
Read mode : Secure with NO C2, accurate stream, disable cache
Read offset correction : 6
Overread into Lead-In and Lead-Out : No

Used output format : Internal WAV Routines
44.100 Hz; 16 Bit; Stereo

Other options :
Fill up missing offset samples with silence : Yes
Delete leading and trailing silent blocks : No
Native Win32 interface for Win NT & 2000

Track 1
Filename D:\My Music\ripped\01 – Split Myself In Two.wav

Peak level 99.5 %
Track quality 100.0 %
Test CRC CFDD93E9
Copy CRC CFDD93E9
Copy OK

Track 2
Filename D:\My Music\ripped\02 – Magic Toy Missing.wav

Peak level 97.6 %
Track quality 100.0 %
Test CRC CAC82074
Copy CRC CAC82074
Copy OK

Track 3
Filename D:\My Music\ripped\03 – Lost.wav

Peak level 97.9 %
Track quality 100.0 %
Test CRC CDDD304A
Copy CRC CDDD304A
Copy OK

Track 4
Filename D:\My Music\ripped\04 – Plateau.wav

Peak level 97.0 %
Track quality 100.0 %
Test CRC 2F1C9347
Copy CRC 2F1C9347
Copy OK

Track 5
Filename D:\My Music\ripped\05 – Aurora Borealis.wav

Peak level 98.4 %
Track quality 100.0 %
Test CRC 709F4312
Copy CRC 709F4312
Copy OK

Track 6
Filename D:\My Music\ripped\06 – We’re Here.wav

Peak level 98.7 %
Track quality 100.0 %
Test CRC 7CF25FEA
Copy CRC 7CF25FEA
Copy OK

Track 7
Filename D:\My Music\ripped\07 – Climbing.wav

Peak level 97.1 %
Track quality 100.0 %
Test CRC D9033C7F
Copy CRC D9033C7F
Copy OK

Track 8
Filename D:\My Music\ripped\08 – New Gods.wav

Peak level 99.3 %
Track quality 100.0 %
Test CRC 9A20AAE7
Copy CRC 9A20AAE7
Copy OK

Track 9
Filename D:\My Music\ripped\09 – Oh, Me.wav

Peak level 98.8 %
Track quality 100.0 %
Test CRC 2D0289F3
Copy CRC 2D0289F3
Copy OK

Track 10
Filename D:\My Music\ripped\10 – Lake Of Fire.wav

Peak level 98.3 %
Track quality 100.0 %
Test CRC 90FD7904
Copy CRC 90FD7904
Copy OK

Track 11
Filename D:\My Music\ripped\11 – I’m A Mindless Idiot.wav

Peak level 99.4 %
Track quality 100.0 %
Test CRC 098D6D8B
Copy CRC 098D6D8B
Copy OK

Track 12
Filename D:\My Music\ripped\12 – The Whistling Song.wav

Peak level 98.1 %
Track quality 100.0 %
Test CRC E7E8C890
Copy CRC E7E8C890
Copy OK

Track 13
Filename D:\My Music\ripped\13 – Teenager(s).wav

Peak level 73.8 %
Track quality 100.0 %
Test CRC 7A85B127
Copy CRC 7A85B127
Copy OK

Track 14
Filename D:\My Music\ripped\14 – I’m Not Here.wav

Peak level 78.0 %
Track quality 99.9 %
Test CRC 784D1331
Copy CRC 784D1331
Copy OK

Track 15
Filename D:\My Music\ripped\15 – New Gods.wav

Peak level 77.3 %
Track quality 100.0 %
Test CRC 8D328172
Copy CRC 8D328172
Copy OK

Track 16
Filename D:\My Music\ripped\16 – Lost.wav

Peak level 77.3 %
Track quality 100.0 %
Test CRC 069EBDD5
Copy CRC 069EBDD5
Copy OK

Track 17
Filename D:\My Music\ripped\17 – What To Do.wav

Peak level 77.3 %
Track quality 100.0 %
Test CRC 0C286F8A
Copy CRC 0C286F8A
Copy OK

Track 18
Filename D:\My Music\ripped\18 – 100% Of Nothing.wav

Peak level 76.9 %
Track quality 100.0 %
Test CRC DD46C24D
Copy CRC DD46C24D
Copy OK

Track 19
Filename D:\My Music\ripped\19 – Aurora Borealis.wav

Peak level 77.4 %
Track quality 100.0 %
Test CRC C97B6799
Copy CRC C97B6799
Copy OK

No errors occured

End of status report

REM GENRE Indie
REM DATE 1983
REM DISCID 0A0CEE14
REM COMMENT “ExactAudioCopy v0.95b4”
PERFORMER “Meat Puppets”
TITLE “Meat Puppets II”
FILE “01 – Split Myself In Two.wav” wavE
TRACK 01 AUDIO
TITLE “Split Myself In Two”
PERFORMER “Meat Puppets”
INDEX 01 00:00:00
TRACK 02 AUDIO
TITLE “Magic Toy Missing”
PERFORMER “Meat Puppets”
INDEX 00 02:23:37
FILE “02 – Magic Toy Missing.wav” wavE
INDEX 01 00:00:00
TRACK 03 AUDIO
TITLE “Lost”
PERFORMER “Meat Puppets”
INDEX 00 01:21:12
FILE “03 – Lost.wav” wavE
INDEX 01 00:00:00
TRACK 04 AUDIO
TITLE “Plateau”
PERFORMER “Meat Puppets”
INDEX 00 03:26:20
FILE “04 – Plateau.wav” wavE
INDEX 01 00:00:00
TRACK 05 AUDIO
TITLE “Aurora Borealis”
PERFORMER “Meat Puppets”
INDEX 00 02:21:10
FILE “05 – Aurora Borealis.wav” wavE
INDEX 01 00:00:00
FILE “06 – We’re Here.wav” wavE
TRACK 06 AUDIO
TITLE “We’re Here”
PERFORMER “Meat Puppets”
INDEX 01 00:00:00
TRACK 07 AUDIO
TITLE “Climbing”
PERFORMER “Meat Puppets”
INDEX 00 02:43:10
FILE “07 – Climbing.wav” wavE
INDEX 01 00:00:00
TRACK 08 AUDIO
TITLE “New Gods”
PERFORMER “Meat Puppets”
INDEX 00 02:41:55
FILE “08 – New Gods.wav” wavE
INDEX 01 00:00:00
TRACK 09 AUDIO
TITLE “Oh, Me”
PERFORMER “Meat Puppets”
INDEX 00 02:10:73
FILE “09 – Oh, Me.wav” wavE
INDEX 01 00:00:00
TRACK 10 AUDIO
TITLE “Lake Of Fire”
PERFORMER “Meat Puppets”
INDEX 00 03:00:60
FILE “10 – Lake Of Fire.wav” wavE
INDEX 01 00:00:00
TRACK 11 AUDIO
TITLE “I’m A Mindless Idiot”
PERFORMER “Meat Puppets”
INDEX 00 01:56:43
FILE “11 – I’m A Mindless Idiot.wav” wavE
INDEX 01 00:00:00
TRACK 12 AUDIO
TITLE “The Whistling Song”
PERFORMER “Meat Puppets”
INDEX 00 02:29:12
FILE “12 – The Whistling Song.wav” wavE
INDEX 01 00:00:00
TRACK 13 AUDIO
TITLE “Teenager(s)”
PERFORMER “Meat Puppets”
INDEX 00 02:55:62
FILE “13 – Teenager(s).wav” wavE
INDEX 01 00:00:00
TRACK 14 AUDIO
TITLE “I’m Not Here”
PERFORMER “Meat Puppets”
INDEX 00 03:35:72
FILE “14 – I’m Not Here.wav” wavE
INDEX 01 00:00:00
TRACK 15 AUDIO
TITLE “New Gods”
PERFORMER “Meat Puppets”
INDEX 00 01:53:37
FILE “15 – New Gods.wav” wavE
INDEX 01 00:00:00
FILE “16 – Lost.wav” wavE
TRACK 16 AUDIO
TITLE “Lost”
PERFORMER “Meat Puppets”
INDEX 01 00:00:00
TRACK 17 AUDIO
TITLE “What To Do”
PERFORMER “Meat Puppets”
INDEX 00 03:01:50
FILE “17 – What To Do.wav” wavE
INDEX 01 00:00:00
TRACK 18 AUDIO
TITLE “100% Of Nothing”
PERFORMER “Meat Puppets”
INDEX 00 02:33:40
FILE “18 – 100% Of Nothing.wav” wavE
INDEX 01 00:00:00
TRACK 19 AUDIO
TITLE “Aurora Borealis”
PERFORMER “Meat Puppets”
INDEX 00 01:49:10
FILE “19 – Aurora Borealis.wav” wavE
INDEX 01 00:00:00

Leave a Reply

Your email address will not be published. Required fields are marked *

This site uses Akismet to reduce spam. Learn how your comment data is processed.