Meat Puppets – Huevos (Remastered)




Artist: Meat Puppets
Year: 1987/1999
Genre: Rock
Notes: Discogs
Add. Notes: Remastered
Cover incl.: No
Encoder: FLAC
Bitrate: ~800 kBit/s (44.1 kHz/16 Bit/s)
Log & Cue incl.: Yes
Size: 360,65 MB
Password: “slam” (without ” “)


All Downloads/Hosters are compatible

Download 1
Turbobit.net
Rapidgator.net
KatFile.com
UploadRar.com
Download 2
Turbobit.net
Rapidgator.net
KatFile.com
UploadRar.com
Download 3
Turbobit.net
Rapidgator.net
KatFile.com
UploadRar.com

Tracklist:

1 - Paradise - 4:37
2 - Look At The Rain - 4:22
3 - Bad Love - 3:14
4 - Sexy Music - 5:29
5 - Crazy - 4:44
6 - Fruit - 3:32
7 - Automatic Mojo - 3:23
8 - Dry Rain - 2:55
9 - I Can't Be Counted On - 4:02
Bonus Tracks
10 - Medley - Baby What You Want Me To Do / I Can't Be 
Counted On - 1:29
11 - Sexy Music - 6:41
12 - Automatic Mojo - 3:57
13 - Paradise - 4:06
14 - Fruit - 5:20

EAC-Log, CUE-Sheed & NFO:

Click to open spoiler
Exact Audio Copy V0.99 prebeta 5 from 4. May 2009

EAC extraction logfile from 21. June 2009, 19:31

Meat Puppets / Huevos

Used drive : PHILIPS DVD+-RW DVD8631 Adapter: 1 ID: 0

Read mode : Secure
Utilize accurate stream : Yes
Defeat audio cache : Yes
Make use of C2 pointers : No

Read offset correction : 618
Overread into Lead-In and Lead-Out : No
Fill up missing offset samples with silence : Yes
Delete leading and trailing silent blocks : No
Null samples used in CRC calculations : Yes
Used interface : Installed external ASPI interface
Gap handling : Appended to previous track

Used output format : Internal WAV Routines
Sample format : 44.100 Hz; 16 Bit; Stereo

TOC of the extracted CD

Track | Start | Length | Start sector | End sector
———————————————————
1 | 0:00.00 | 4:36.47 | 0 | 20746
2 | 4:36.47 | 4:22.33 | 20747 | 40429
3 | 8:59.05 | 3:13.72 | 40430 | 54976
4 | 12:13.02 | 5:28.50 | 54977 | 79626
5 | 17:41.52 | 4:44.00 | 79627 | 100926
6 | 22:25.52 | 3:31.53 | 100927 | 116804
7 | 25:57.30 | 3:23.30 | 116805 | 132059
8 | 29:20.60 | 2:55.02 | 132060 | 145186
9 | 32:15.62 | 4:01.63 | 145187 | 163324
10 | 36:17.50 | 1:29.10 | 163325 | 170009
11 | 37:46.60 | 6:40.55 | 170010 | 200064
12 | 44:27.40 | 3:56.72 | 200065 | 217836
13 | 48:24.37 | 4:06.28 | 217837 | 236314
14 | 52:30.65 | 5:18.10 | 236315 | 260174
15 | 60:21.00 | 5:37.37 | 271575 | 296886

Track 1

Filename [CENSORED]\Meat Puppets – Huevos (Remastered & Expanded)\Meat Puppets – Huevos – 01 – Paradise.wav

Pre-gap length 0:00:02.00

Peak level 97.7 %
Track quality 99.9 %
Test CRC B12C93CD
Copy CRC B12C93CD
Accurately ripped (confidence 9) [611B130D]
Copy OK

Track 2

Filename [CENSORED]\Meat Puppets – Huevos (Remastered & Expanded)\Meat Puppets – Huevos – 02 – Look At The Rain.wav

Pre-gap length 0:00:02.34

Peak level 97.7 %
Track quality 100.0 %
Test CRC F0EC9BCE
Copy CRC F0EC9BCE
Accurately ripped (confidence 9) [E0E4179B]
Copy OK

Track 3

Filename [CENSORED]\Meat Puppets – Huevos (Remastered & Expanded)\Meat Puppets – Huevos – 03 – Bad Love.wav

Pre-gap length 0:00:02.18

Peak level 96.6 %
Track quality 100.0 %
Test CRC F4AE458C
Copy CRC F4AE458C
Accurately ripped (confidence 9) [5AA778DB]
Copy OK

Track 4

Filename [CENSORED]\Meat Puppets – Huevos (Remastered & Expanded)\Meat Puppets – Huevos – 04 – Sexy Music.wav

Pre-gap length 0:00:02.53

Peak level 96.1 %
Track quality 100.0 %
Test CRC 73EE76EB
Copy CRC 73EE76EB
Accurately ripped (confidence 9) [9F2AB798]
Copy OK

Track 5

Filename [CENSORED]\Meat Puppets – Huevos (Remastered & Expanded)\Meat Puppets – Huevos – 05 – Crazy.wav

Pre-gap length 0:00:01.73

Peak level 96.6 %
Track quality 100.0 %
Test CRC EC5A2C9D
Copy CRC EC5A2C9D
Accurately ripped (confidence 9) [C149EC02]
Copy OK

Track 6

Filename [CENSORED]\Meat Puppets – Huevos (Remastered & Expanded)\Meat Puppets – Huevos – 06 – Fruit.wav

Pre-gap length 0:00:02.43

Peak level 95.5 %
Track quality 100.0 %
Test CRC 7A399506
Copy CRC 7A399506
Accurately ripped (confidence 9) [F837DF6F]
Copy OK

Track 7

Filename [CENSORED]\Meat Puppets – Huevos (Remastered & Expanded)\Meat Puppets – Huevos – 07 – Automatic Mojo.wav

Pre-gap length 0:00:03.10

Peak level 95.4 %
Track quality 100.0 %
Test CRC B79735DD
Copy CRC B79735DD
Accurately ripped (confidence 9) [DA3E471A]
Copy OK

Track 8

Filename [CENSORED]\Meat Puppets – Huevos (Remastered & Expanded)\Meat Puppets – Huevos – 08 – Dry Rain.wav

Pre-gap length 0:00:02.70

Peak level 94.6 %
Track quality 100.0 %
Test CRC A9706FB4
Copy CRC A9706FB4
Accurately ripped (confidence 9) [0AAAD760]
Copy OK

Track 9

Filename [CENSORED]\Meat Puppets – Huevos (Remastered & Expanded)\Meat Puppets – Huevos – 09 – I Can’t Be Counted On.wav

Pre-gap length 0:00:02.20

Peak level 96.1 %
Track quality 100.0 %
Test CRC 7640D8AF
Copy CRC 7640D8AF
Accurately ripped (confidence 9) [D050173B]
Copy OK

Track 10

Filename [CENSORED]\Meat Puppets – Huevos (Remastered & Expanded)\Meat Puppets – Huevos – 10 – Medley- Baby What You Want Me To Do & I Can’t Be Counted On (Demo).wav

Pre-gap length 0:00:03.53

Peak level 97.0 %
Track quality 100.0 %
Test CRC B7D89946
Copy CRC B7D89946
Accurately ripped (confidence 9) [0C9D9E72]
Copy OK

Track 11

Filename [CENSORED]\Meat Puppets – Huevos (Remastered & Expanded)\Meat Puppets – Huevos – 11 – Sexy Music (Demo).wav

Pre-gap length 0:00:02.32

Peak level 100.0 %
Track quality 100.0 %
Test CRC D94AC65E
Copy CRC D94AC65E
Accurately ripped (confidence 9) [6B9A4D57]
Copy OK

Track 12

Filename [CENSORED]\Meat Puppets – Huevos (Remastered & Expanded)\Meat Puppets – Huevos – 12 – Automatic Mojo (Demo).wav

Pre-gap length 0:00:02.62

Peak level 99.2 %
Track quality 100.0 %
Test CRC 503A6E23
Copy CRC 503A6E23
Accurately ripped (confidence 9) [4154B8E3]
Copy OK

Track 13

Filename [CENSORED]\Meat Puppets – Huevos (Remastered & Expanded)\Meat Puppets – Huevos – 13 – Paradise (Demo).wav

Pre-gap length 0:00:03.54

Peak level 96.7 %
Track quality 99.9 %
Test CRC 27CEB5A2
Copy CRC 27CEB5A2
Accurately ripped (confidence 4) [517CEDCF]
Copy OK

Track 14

Filename [CENSORED]\Meat Puppets – Huevos (Remastered & Expanded)\Meat Puppets – Huevos – 14 – Fruit (Demo).wav

Pre-gap length 0:00:01.74

Peak level 93.8 %
Track quality 99.9 %
Test CRC D2A344A7
Copy CRC D2A344A7
Accurately ripped (confidence 9) [3105AD6A]
Copy OK

All tracks accurately ripped

No errors occurred

End of status report

REM GENRE “Alt. Rock”
REM DATE 1987
REM DISCID E30F760F
REM COMMENT “ExactAudioCopy v0.99pb5”
PERFORMER “Meat Puppets”
TITLE “Huevos”
FILE “Meat Puppets – Huevos – 01 – Paradise.wav” WAVE
TRACK 01 AUDIO
TITLE “Paradise”
PERFORMER “Meat Puppets”
FLAGS DCP
INDEX 01 00:00:00
TRACK 02 AUDIO
TITLE “Look At The Rain”
PERFORMER “Meat Puppets”
FLAGS DCP
INDEX 00 04:34:13
FILE “Meat Puppets – Huevos – 02 – Look At The Rain.wav” WAVE
INDEX 01 00:00:00
TRACK 03 AUDIO
TITLE “Bad Love”
PERFORMER “Meat Puppets”
FLAGS DCP
INDEX 00 04:20:15
FILE “Meat Puppets – Huevos – 03 – Bad Love.wav” WAVE
INDEX 01 00:00:00
TRACK 04 AUDIO
TITLE “Sexy Music”
PERFORMER “Meat Puppets”
FLAGS DCP
INDEX 00 03:11:19
FILE “Meat Puppets – Huevos – 04 – Sexy Music.wav” WAVE
INDEX 01 00:00:00
TRACK 05 AUDIO
TITLE “Crazy”
PERFORMER “Meat Puppets”
FLAGS DCP
INDEX 00 05:26:52
FILE “Meat Puppets – Huevos – 05 – Crazy.wav” WAVE
INDEX 01 00:00:00
TRACK 06 AUDIO
TITLE “Fruit”
PERFORMER “Meat Puppets”
FLAGS DCP
INDEX 00 04:41:32
FILE “Meat Puppets – Huevos – 06 – Fruit.wav” WAVE
INDEX 01 00:00:00
TRACK 07 AUDIO
TITLE “Automatic Mojo”
PERFORMER “Meat Puppets”
FLAGS DCP
INDEX 00 03:28:43
FILE “Meat Puppets – Huevos – 07 – Automatic Mojo.wav” WAVE
INDEX 01 00:00:00
TRACK 08 AUDIO
TITLE “Dry Rain”
PERFORMER “Meat Puppets”
FLAGS DCP
INDEX 00 03:20:35
FILE “Meat Puppets – Huevos – 08 – Dry Rain.wav” WAVE
INDEX 01 00:00:00
TRACK 09 AUDIO
TITLE “I Can’t Be Counted On”
PERFORMER “Meat Puppets”
FLAGS DCP
INDEX 00 02:52:57
FILE “Meat Puppets – Huevos – 09 – I Can’t Be Counted On.wav” WAVE
INDEX 01 00:00:00
TRACK 10 AUDIO
TITLE “Medley: Baby What You Want Me To Do / I Can’t Be Counted On (Demo)”
PERFORMER “Meat Puppets”
FLAGS DCP
INDEX 00 03:58:10
FILE “Meat Puppets – Huevos – 10 – Medley- Baby What You Want Me To Do & I Can’t Be Counted On (Demo).wav” WAVE
INDEX 01 00:00:00
TRACK 11 AUDIO
TITLE “Sexy Music (Demo)”
PERFORMER “Meat Puppets”
FLAGS DCP
INDEX 00 01:26:53
FILE “Meat Puppets – Huevos – 11 – Sexy Music (Demo).wav” WAVE
INDEX 01 00:00:00
TRACK 12 AUDIO
TITLE “Automatic Mojo (Demo)”
PERFORMER “Meat Puppets”
FLAGS DCP
INDEX 00 06:37:68
FILE “Meat Puppets – Huevos – 12 – Automatic Mojo (Demo).wav” WAVE
INDEX 01 00:00:00
TRACK 13 AUDIO
TITLE “Paradise (Demo)”
PERFORMER “Meat Puppets”
FLAGS DCP
INDEX 00 03:53:18
FILE “Meat Puppets – Huevos – 13 – Paradise (Demo).wav” WAVE
INDEX 01 00:00:00
TRACK 14 AUDIO
TITLE “Fruit (Demo)”
PERFORMER “Meat Puppets”
FLAGS DCP
INDEX 00 04:04:29
FILE “Meat Puppets – Huevos – 14 – Fruit (Demo).wav” WAVE
INDEX 01 00:00:00


Leave a Reply

Your email address will not be published. Required fields are marked *

This site uses Akismet to reduce spam. Learn how your comment data is processed.