Meat Puppets – Golden Lies




Artist: Meat Puppets
Year: 2000
Genre: Rock
Notes: Discogs
Add. Notes:
Cover incl.: Yes
Encoder: FLAC
Bitrate: ~1000 kBit/s (44.1 kHz/16 Bit/s)
Log & Cue incl.: Yes
Size: 425,94 MB
Password: “slam” (without ” “)


All Downloads/Hosters are compatible

Download 1
Turbobit.net
Rapidgator.net
KatFile.com
UploadRar.com
Download 2
Turbobit.net
Rapidgator.net
KatFile.com
UploadRar.com
Download 3
Turbobit.net
Rapidgator.net
KatFile.com
UploadRar.com

Tracklist:

1 - Intro - 0:51
2 - Armed And Stupid - 3:21
3 - I Quit - 3:01
4 - Lamp - 5:53
5 - Hercules - 3:34
6 - Batwing - 3:08
7 - Take Off Your Clothes - 4:00
8 - You Love Me - 3:52
9 - Pieces Of Me - 3:46
10 - Push The Button - 4:53
11 - Tarantula - 4:05
12 - Endless Wave - 4:30
13 - Wipeout - 3:54
14 - Fatboy/Fat/Requiem - 9:50

EAC-Log, CUE-Sheed & NFO:

Click to open spoiler
Exact Audio Copy V0.99 prebeta 4 from 23. January 2008

EAC extraction logfile from 11. March 2009, 0:49

Meat Puppets / Golden Lies

Used drive : HL-DT-STDVD-ROM GDR8163B Adapter: 1 ID: 0

Read mode : Secure
Utilize accurate stream : Yes
Defeat audio cache : Yes
Make use of C2 pointers : No

Read offset correction : 102
Overread into Lead-In and Lead-Out : No
Fill up missing offset samples with silence : Yes
Delete leading and trailing silent blocks : No
Null samples used in CRC calculations : Yes
Used interface : Native Win32 interface for Win NT & 2000
Gap handling : Appended to previous track

Used output format : User Defined Encoder
Selected bitrate : 128 kBit/s
Quality : High
Add ID3 tag : No
Command line compressor : C:\Program Files\Exact Audio Copy\Flac\flac.exe
Additional command line options : -V -8 -T “artist=%a” -T “title=%t” -T “album=%g” -T “date=%y” -T “tracknumber=%n” -T “genre=%m” %s

TOC of the extracted CD

Track | Start | Length | Start sector | End sector
———————————————————
1 | 0:00.00 | 0:51.27 | 0 | 3851
2 | 0:51.27 | 3:21.45 | 3852 | 18971
3 | 4:12.72 | 3:01.25 | 18972 | 32571
4 | 7:14.22 | 5:53.45 | 32572 | 59091
5 | 13:07.67 | 3:34.65 | 59092 | 75206
6 | 16:42.57 | 3:08.40 | 75207 | 89346
7 | 19:51.22 | 4:00.38 | 89347 | 107384
8 | 23:51.60 | 3:52.22 | 107385 | 124806
9 | 27:44.07 | 3:46.28 | 124807 | 141784
10 | 31:30.35 | 4:53.32 | 141785 | 163791
11 | 36:23.67 | 4:05.70 | 163792 | 182236
12 | 40:29.62 | 4:30.23 | 182237 | 202509
13 | 45:00.10 | 3:54.12 | 202510 | 220071
14 | 48:54.22 | 9:50.70 | 220072 | 264391

Track 1

Filename K:\EAC Rips\Meat Puppets – 2000 – Golden Lies\01 – Intro.wav

Pre-gap length 0:00:02.00

Peak level 94.3 %
Track quality 100.0 %
Test CRC 123AC832
Copy CRC 123AC832
Track not present in AccurateRip database
Copy OK

Track 2

Filename K:\EAC Rips\Meat Puppets – 2000 – Golden Lies\02 – Armed And Stupid.wav

Peak level 98.8 %
Track quality 100.0 %
Test CRC FB247189
Copy CRC FB247189
Track not present in AccurateRip database
Copy OK

Track 3

Filename K:\EAC Rips\Meat Puppets – 2000 – Golden Lies\03 – I Quit.wav

Peak level 98.8 %
Track quality 100.0 %
Test CRC 4D7152EE
Copy CRC 4D7152EE
Track not present in AccurateRip database
Copy OK

Track 4

Filename K:\EAC Rips\Meat Puppets – 2000 – Golden Lies\04 – Lamp.wav

Peak level 98.6 %
Track quality 100.0 %
Test CRC C222BC74
Copy CRC C222BC74
Track not present in AccurateRip database
Copy OK

Track 5

Filename K:\EAC Rips\Meat Puppets – 2000 – Golden Lies\05 – Hercules.wav

Peak level 98.8 %
Track quality 99.9 %
Test CRC 52443DEC
Copy CRC 52443DEC
Track not present in AccurateRip database
Copy OK

Track 6

Filename K:\EAC Rips\Meat Puppets – 2000 – Golden Lies\06 – Batwing.wav

Peak level 98.8 %
Track quality 100.0 %
Test CRC 55DB7613
Copy CRC 55DB7613
Track not present in AccurateRip database
Copy OK

Track 7

Filename K:\EAC Rips\Meat Puppets – 2000 – Golden Lies\07 – Take Off Your Clothes.wav

Peak level 98.8 %
Track quality 100.0 %
Test CRC 93F564D2
Copy CRC 93F564D2
Track not present in AccurateRip database
Copy OK

Track 8

Filename K:\EAC Rips\Meat Puppets – 2000 – Golden Lies\08 – You Love Me.wav

Peak level 98.8 %
Track quality 100.0 %
Test CRC 9C6BD4CE
Copy CRC 9C6BD4CE
Track not present in AccurateRip database
Copy OK

Track 9

Filename K:\EAC Rips\Meat Puppets – 2000 – Golden Lies\09 – Pieces Of Me.wav

Peak level 98.8 %
Track quality 100.0 %
Test CRC 39030A52
Copy CRC 39030A52
Track not present in AccurateRip database
Copy OK

Track 10

Filename K:\EAC Rips\Meat Puppets – 2000 – Golden Lies\10 – Push The Button.wav

Peak level 98.8 %
Track quality 100.0 %
Test CRC E2B5924E
Copy CRC E2B5924E
Track not present in AccurateRip database
Copy OK

Track 11

Filename K:\EAC Rips\Meat Puppets – 2000 – Golden Lies\11 – Tarantula.wav

Peak level 98.8 %
Track quality 100.0 %
Test CRC CEF4C324
Copy CRC CEF4C324
Track not present in AccurateRip database
Copy OK

Track 12

Filename K:\EAC Rips\Meat Puppets – 2000 – Golden Lies\12 – Endless Wave.wav

Peak level 98.8 %
Track quality 99.9 %
Test CRC A4D42FCA
Copy CRC A4D42FCA
Track not present in AccurateRip database
Copy OK

Track 13

Filename K:\EAC Rips\Meat Puppets – 2000 – Golden Lies\13 – Wipeout.wav

Peak level 98.8 %
Track quality 100.0 %
Test CRC 0FEC151E
Copy CRC 0FEC151E
Track not present in AccurateRip database
Copy OK

Track 14

Filename K:\EAC Rips\Meat Puppets – 2000 – Golden Lies\14 – Fatboy,Fat,Requiem.wav

Peak level 98.8 %
Track quality 100.0 %
Test CRC D0A88BFB
Copy CRC D0A88BFB
Track not present in AccurateRip database
Copy OK

None of the tracks are present in the AccurateRip database

No errors occurred

End of status report

REM GENRE Alternative
REM DATE 2000
REM DISCID B80DC50E
REM COMMENT “ExactAudioCopy v0.99pb4”
FILE “01 – Intro.wav” WAVE
TRACK 01 AUDIO
INDEX 01 00:00:00
FILE “02 – Armed And Stupid.wav” WAVE
TRACK 02 AUDIO
INDEX 01 00:00:00
FILE “03 – I Quit.wav” WAVE
TRACK 03 AUDIO
INDEX 01 00:00:00
FILE “04 – Lamp.wav” WAVE
TRACK 04 AUDIO
INDEX 01 00:00:00
FILE “05 – Hercules.wav” WAVE
TRACK 05 AUDIO
INDEX 01 00:00:00
FILE “06 – Batwing.wav” WAVE
TRACK 06 AUDIO
INDEX 01 00:00:00
FILE “07 – Take Off Your Clothes.wav” WAVE
TRACK 07 AUDIO
INDEX 01 00:00:00
FILE “08 – You Love Me.wav” WAVE
TRACK 08 AUDIO
INDEX 01 00:00:00
FILE “09 – Pieces Of Me.wav” WAVE
TRACK 09 AUDIO
INDEX 01 00:00:00
FILE “10 – Push The Button.wav” WAVE
TRACK 10 AUDIO
INDEX 01 00:00:00
FILE “11 – Tarantula.wav” WAVE
TRACK 11 AUDIO
INDEX 01 00:00:00
FILE “12 – Endless Wave.wav” WAVE
TRACK 12 AUDIO
INDEX 01 00:00:00
FILE “13 – Wipeout.wav” WAVE
TRACK 13 AUDIO
INDEX 01 00:00:00
FILE “14 – Fatboy,Fat,Requiem.wav” WAVE
TRACK 14 AUDIO
INDEX 01 00:00:00


Leave a Reply

Your email address will not be published. Required fields are marked *

This site uses Akismet to reduce spam. Learn how your comment data is processed.