Master – Unreleased 1985 Album




No Cover available


Artist: Master
Year: 2003
Genre: Metal
Notes: Discogs
Add. Notes:
Watch Songs on: YouTube
Cover incl.: Yes
Encoder: FLAC
Bitrate: ~1100 kBit/s (44.1 kHz/16 Bit/s)
Log & Cue incl.: Yes/Yes
Size: 252,25 MB
Password: “slam” (without ” “)


All Downloads/Hosters are compatible

Download 1
KatFile.com
Turbobit.net
Rapidgator.net
FileFactory.com
Download 2
KatFile.com
Turbobit.net
Rapidgator.net
FileFactory.com

Tracklist:

1 Master 2:55
2 Unknown Soldier 2:49
3 Mangled Dehumanisation 1:54
4 Funeral Bitch 2:00
5 Terrorizer 2:46
6 Pledge Of Alliance 1:58
7 Re-entry And Destruction 2:54

BONUS DEMO TRACKS
8 Constant Quarrel 3:18
9 Judgment Of Will 3:25
10 Submerged In Sin 4:35
11 Cut Through The Filth 3:45

EAC-Log, CUE-Sheed & NFO:

Click to open spoiler
Exact Audio Copy V1.1 from 23. June 2015

Отчёт EAC об извлечении, выполненном 23. апреля 2017, 23:39

Master / Unreleased 1985 Album

Дисковод: Optiarc DVD RW AD-7243S Adapter: 1 ID: 0

Режим чтения : Достоверность
Использование точного потока : Да
Отключение кэша аудио : Да
Использование указателей C2 : Нет

Коррекция смещения при чтении : 48
Способность читать области Lead-in и Lead-out : Нет
Заполнение пропущенных сэмплов тишиной : Да
Удаление блоков с тишиной в начале и конце : Нет
При вычислениях CRC использовались нулевые сэмплы : Да
Интерфейс : Встроенный Win32-интерфейс для Win NT/2000

Выходной формат : Пользовательский кодировщик
Выбранный битрейт : 768 kBit/s
Качество : Высокий
Добавление ID3-тега : Нет
Утилита сжатия : C:\Program Files (x86)\Exact Audio Copy\FLAC\FLAC.EXE
Дополнительные параметры : -V -8 -T “Date=%year%” -T “Genre=%genre%” %source%

TOC извлечённого CD

Трек | Старт | Длительность | Начальный сектор | Конечный сектор
———————————————————————
1 | 0:00.00 | 2:55.42 | 0 | 13166
2 | 2:55.42 | 2:49.10 | 13167 | 25851
3 | 5:44.52 | 1:54.68 | 25852 | 34469
4 | 7:39.45 | 2:00.05 | 34470 | 43474
5 | 9:39.50 | 2:46.55 | 43475 | 55979
6 | 12:26.30 | 1:58.12 | 55980 | 64841
7 | 14:24.42 | 2:54.05 | 64842 | 77896
8 | 17:18.47 | 3:18.25 | 77897 | 92771
9 | 20:36.72 | 3:25.15 | 92772 | 108161
10 | 24:02.12 | 4:35.68 | 108162 | 128854
11 | 28:38.05 | 3:45.22 | 128855 | 145751

Характеристики диапазона извлечения и сообщения об ошибках

Выбранный диапазон

Имя файла G:\Документы\Музыка\Master\Paul Speckmann – Discography\Master\2003 – Unreleased 1985 Album (FBP-016)\Master – Unreleased 1985 Album.wav

Пиковый уровень 98.8 %
Скорость извлечения 3.4 X
Качество диапазона 100.0 %
CRC теста 2397E2E9
CRC копии 2397E2E9
Копирование… OK

Ошибок не произошло

AccurateRip: сводка

Трек 1 : извлечено точно (доверие 4) [50B898F1] (AR v1)
Трек 2 : извлечено точно (доверие 4) [47B1AE34] (AR v1)
Трек 3 : извлечено точно (доверие 4) [8218CBBA] (AR v1)
Трек 4 : извлечено точно (доверие 4) [3AFEA8C2] (AR v1)
Трек 5 : извлечено точно (доверие 4) [7B354166] (AR v1)
Трек 6 : извлечено точно (доверие 4) [F606600C] (AR v1)
Трек 7 : извлечено точно (доверие 4) [7620DFCC] (AR v1)
Трек 8 : извлечено точно (доверие 4) [60377787] (AR v1)
Трек 9 : извлечено точно (доверие 4) [24A869EB] (AR v1)
Трек 10 : извлечено точно (доверие 4) [45B9D7FC] (AR v1)
Трек 11 : извлечено точно (доверие 4) [893E4D1D] (AR v1)

Все треки извлечены точно

Конец отчёта

—- CUETools DB Plugin V2.1.6

[CTDB TOCID: JAVrGac2z8wcKgMvOSYbRO68tTY-] found
Submit result: already submitted
Track | CTDB Status
1 | (7/7) Accurately ripped
2 | (7/7) Accurately ripped
3 | (7/7) Accurately ripped
4 | (7/7) Accurately ripped
5 | (7/7) Accurately ripped
6 | (7/7) Accurately ripped
7 | (7/7) Accurately ripped
8 | (7/7) Accurately ripped
9 | (7/7) Accurately ripped
10 | (7/7) Accurately ripped
11 | (7/7) Accurately ripped

==== Контрольная сумма отчёта 4AE1EA7A35FCAB35B484DA09A53D0DABA565921D18F85C5A7BF8204D344BCDB1 ====

————————————————————

Exact Audio Copy V1.1 from 23. June 2015

Отчёт EAC об извлечении, выполненном 23. апреля 2017, 23:39

Master / Unreleased 1985 Album

Дисковод: Optiarc DVD RW AD-7243S Adapter: 1 ID: 0

Режим чтения : Достоверность
Использование точного потока : Да
Отключение кэша аудио : Да
Использование указателей C2 : Нет

Коррекция смещения при чтении : 48
Способность читать области Lead-in и Lead-out : Нет
Заполнение пропущенных сэмплов тишиной : Да
Удаление блоков с тишиной в начале и конце : Нет
При вычислениях CRC использовались нулевые сэмплы : Да
Интерфейс : Встроенный Win32-интерфейс для Win NT/2000

Выходной формат : Пользовательский кодировщик
Выбранный битрейт : 768 kBit/s
Качество : Высокий
Добавление ID3-тега : Нет
Утилита сжатия : C:\Program Files (x86)\Exact Audio Copy\FLAC\FLAC.EXE
Дополнительные параметры : -V -8 -T “Date=%year%” -T “Genre=%genre%” %source%

TOC извлечённого CD

Трек | Старт | Длительность | Начальный сектор | Конечный сектор
———————————————————————
1 | 0:00.00 | 2:55.42 | 0 | 13166
2 | 2:55.42 | 2:49.10 | 13167 | 25851
3 | 5:44.52 | 1:54.68 | 25852 | 34469
4 | 7:39.45 | 2:00.05 | 34470 | 43474
5 | 9:39.50 | 2:46.55 | 43475 | 55979
6 | 12:26.30 | 1:58.12 | 55980 | 64841
7 | 14:24.42 | 2:54.05 | 64842 | 77896
8 | 17:18.47 | 3:18.25 | 77897 | 92771
9 | 20:36.72 | 3:25.15 | 92772 | 108161
10 | 24:02.12 | 4:35.68 | 108162 | 128854
11 | 28:38.05 | 3:45.22 | 128855 | 145751

Характеристики диапазона извлечения и сообщения об ошибках

Выбранный диапазон

Имя файла G:\Документы\Музыка\Master\Paul Speckmann – Discography\Master\2003 – Unreleased 1985 Album (FBP-016)\Master – Unreleased 1985 Album.wav

Пиковый уровень 98.8 %
Скорость извлечения 3.4 X
Качество диапазона 100.0 %
CRC теста 2397E2E9
CRC копии 2397E2E9
Копирование… OK

Ошибок не произошло

AccurateRip: сводка

Трек 1 : извлечено точно (доверие 4) [50B898F1] (AR v1)
Трек 2 : извлечено точно (доверие 4) [47B1AE34] (AR v1)
Трек 3 : извлечено точно (доверие 4) [8218CBBA] (AR v1)
Трек 4 : извлечено точно (доверие 4) [3AFEA8C2] (AR v1)
Трек 5 : извлечено точно (доверие 4) [7B354166] (AR v1)
Трек 6 : извлечено точно (доверие 4) [F606600C] (AR v1)
Трек 7 : извлечено точно (доверие 4) [7620DFCC] (AR v1)
Трек 8 : извлечено точно (доверие 4) [60377787] (AR v1)
Трек 9 : извлечено точно (доверие 4) [24A869EB] (AR v1)
Трек 10 : извлечено точно (доверие 4) [45B9D7FC] (AR v1)
Трек 11 : извлечено точно (доверие 4) [893E4D1D] (AR v1)

Все треки извлечены точно

Конец отчёта

—- CUETools DB Plugin V2.1.6

[CTDB TOCID: JAVrGac2z8wcKgMvOSYbRO68tTY-] found
Submit result: already submitted
Track | CTDB Status
1 | (7/7) Accurately ripped
2 | (7/7) Accurately ripped
3 | (7/7) Accurately ripped
4 | (7/7) Accurately ripped
5 | (7/7) Accurately ripped
6 | (7/7) Accurately ripped
7 | (7/7) Accurately ripped
8 | (7/7) Accurately ripped
9 | (7/7) Accurately ripped
10 | (7/7) Accurately ripped
11 | (7/7) Accurately ripped

==== Контрольная сумма отчёта 4AE1EA7A35FCAB35B484DA09A53D0DABA565921D18F85C5A7BF8204D344BCDB1 ====
REM GENRE “Death Metal”
REM DATE 2003
REM DISCID 8807970B
REM COMMENT “ExactAudioCopy v1.3”
PERFORMER “Master”
TITLE “Unreleased 1985 Album”
REM COMPOSER “”
FILE “Master – Unreleased 1985 Album.flac” WAVE
TRACK 01 AUDIO
TITLE “Master”
PERFORMER “Master”
REM COMPOSER “”
INDEX 01 00:00:00
TRACK 02 AUDIO
TITLE “Unknown Soldier”
PERFORMER “Master”
REM COMPOSER “”
INDEX 00 02:54:17
INDEX 01 02:55:42
TRACK 03 AUDIO
TITLE “Mangled Dehumanization”
PERFORMER “Master”
REM COMPOSER “”
INDEX 00 05:43:12
INDEX 01 05:44:52
TRACK 04 AUDIO
TITLE “Funeral Bitch”
PERFORMER “Master”
REM COMPOSER “”
INDEX 00 07:38:05
INDEX 01 07:39:45
TRACK 05 AUDIO
TITLE “Terrorizer”
PERFORMER “Master”
REM COMPOSER “”
INDEX 00 09:38:35
INDEX 01 09:39:50
TRACK 06 AUDIO
TITLE “Pledge of Allegiance”
PERFORMER “Master”
REM COMPOSER “”
INDEX 00 12:25:22
INDEX 01 12:26:30
TRACK 07 AUDIO
TITLE “Re-Entry and Destruction”
PERFORMER “Master”
REM COMPOSER “”
INDEX 01 14:24:42
TRACK 08 AUDIO
TITLE “Constant Quarrel (Bonus Track from 1991 Demo)”
PERFORMER “Master”
REM COMPOSER “”
INDEX 00 17:15:05
INDEX 01 17:18:47
TRACK 09 AUDIO
TITLE “Judgement of Will (Bonus Track from 1991 Demo)”
PERFORMER “Master”
REM COMPOSER “”
INDEX 01 20:36:72
TRACK 10 AUDIO
TITLE “Submerged in Sin (Bonus Track from 1991 Demo)”
PERFORMER “Master”
REM COMPOSER “”
INDEX 01 24:02:12
TRACK 11 AUDIO
TITLE “Cut Through the Filth (Bonus Track from Death Is Just the Beginning II” 1993)”
PERFORMER “Master”
REM COMPOSER “”
INDEX 00 28:35:07
INDEX 01 28:38:05


Leave a Reply

Your email address will not be published. Required fields are marked *

Enter the text from the image below
 

This site uses Akismet to reduce spam. Learn how your comment data is processed.