Master – Pieces (Remastered)




No Cover available

Artist: Master
Year: 2003
Genre: Metal
Notes: Discogs
Add. Notes: Remastered
Watch Songs on: YouTube
Cover incl.: Yes
Encoder: FLAC
Bitrate: ~1000 kBit/s (44.1 kHz/16 Bit/s)
Log & Cue incl.: Yes/Yes
Size: 463 MB
Password: “slam” (without ” “)


All Downloads/Hosters are compatible

Download 1
KatFile.com
Turbobit.net
Rapidgator.net
FileFactory.com
Download 2
KatFile.com
Turbobit.net
Rapidgator.net
FileFactory.com

Tracklist:

1 Funeral Bitch 2:00
2 Submerged in Sin 4:38
3 Master 2:58
4 Mangled Dehumanization 1:55
5 Unknown Soldier 2:52
6 Terrorizer 2:50
7 Pay to Die 3:16
8 Bass Solo 1:57
9 Children of the Grave 4:07
10 Re-Entry and Destruction 2:52
11 Antidote (live) 3:01
12 Cut through the Filth 3:49
13 Return to Vietnam 5:20
14 Follow Your Savior 3:36

Bonus Tracks
15 Judgement Of Will 3:28
16 Redeem Deny 4:19
17 Spoiled Brat 3:22
18 You Don't Listen 2:09
19 Collection Of Souls 3:43

EAC-Log, CUE-Sheed & NFO:

Click to open spoiler
Exact Audio Copy V1.1 from 23. June 2015

Отчёт EAC об извлечении, выполненном 24. апреля 2017, 0:13

Unknown Artist / Unknown Title

Дисковод: Optiarc DVD RW AD-7243S Adapter: 1 ID: 0

Режим чтения : Достоверность
Использование точного потока : Да
Отключение кэша аудио : Да
Использование указателей C2 : Нет

Коррекция смещения при чтении : 48
Способность читать области Lead-in и Lead-out : Нет
Заполнение пропущенных сэмплов тишиной : Да
Удаление блоков с тишиной в начале и конце : Нет
При вычислениях CRC использовались нулевые сэмплы : Да
Интерфейс : Встроенный Win32-интерфейс для Win NT/2000

Выходной формат : Пользовательский кодировщик
Выбранный битрейт : 768 kBit/s
Качество : Высокий
Добавление ID3-тега : Нет
Утилита сжатия : C:\Program Files (x86)\Exact Audio Copy\FLAC\FLAC.EXE
Дополнительные параметры : -V -8 -T “Date=%year%” -T “Genre=%genre%” %source%

TOC извлечённого CD

Трек | Старт | Длительность | Начальный сектор | Конечный сектор
———————————————————————
1 | 0:00.00 | 1:59.71 | 0 | 8995
2 | 1:59.71 | 4:38.13 | 8996 | 29858
3 | 6:38.09 | 2:57.49 | 29859 | 43182
4 | 9:35.58 | 1:55.15 | 43183 | 51822
5 | 11:30.73 | 2:52.12 | 51823 | 64734
6 | 14:23.10 | 2:49.74 | 64735 | 77483
7 | 17:13.09 | 3:15.45 | 77484 | 92153
8 | 20:28.54 | 1:56.48 | 92154 | 100901
9 | 22:25.27 | 4:06.51 | 100902 | 119402
10 | 26:32.03 | 2:52.02 | 119403 | 132304
11 | 29:24.05 | 3:01.04 | 132305 | 145883
12 | 32:25.09 | 3:48.50 | 145884 | 163033
13 | 36:13.59 | 5:20.29 | 163034 | 187062
14 | 41:34.13 | 3:36.27 | 187063 | 203289
15 | 45:10.40 | 3:27.45 | 203290 | 218859
16 | 48:38.10 | 4:19.10 | 218860 | 238294
17 | 52:57.20 | 3:21.44 | 238295 | 253413
18 | 56:18.64 | 2:09.32 | 253414 | 263120
19 | 58:28.21 | 3:43.29 | 263121 | 279874

Характеристики диапазона извлечения и сообщения об ошибках

Выбранный диапазон

Имя файла G:\Документы\Музыка\Master\Paul Speckmann – Discography\Master\2003 – Pieces (Goat-07)\Unknown Artist – Unknown Title.wav

Пиковый уровень 99.9 %
Скорость извлечения 4.0 X
Качество диапазона 99.9 %
CRC теста F8149F16
CRC копии F8149F16
Копирование… OK

Ошибок не произошло

AccurateRip: сводка

Трек 1 отсутствует в базе данных
Трек 2 отсутствует в базе данных
Трек 3 отсутствует в базе данных
Трек 4 отсутствует в базе данных
Трек 5 отсутствует в базе данных
Трек 6 отсутствует в базе данных
Трек 7 отсутствует в базе данных
Трек 8 отсутствует в базе данных
Трек 9 отсутствует в базе данных
Трек 10 отсутствует в базе данных
Трек 11 отсутствует в базе данных
Трек 12 отсутствует в базе данных
Трек 13 отсутствует в базе данных
Трек 14 отсутствует в базе данных
Трек 15 отсутствует в базе данных
Трек 16 отсутствует в базе данных
Трек 17 отсутствует в базе данных
Трек 18 отсутствует в базе данных
Трек 19 отсутствует в базе данных

Ни одного трека нет в базе AccurateRip

Конец отчёта

—- CUETools DB Plugin V2.1.6

[CTDB TOCID: 4VmxYh2kQClOtTgHRWNUnjezu.k-] found
Submit result: 4VmxYh2kQClOtTgHRWNUnjezu.k- has been confirmed
Track | CTDB Status
1 | (2/2) Accurately ripped
2 | (2/2) Accurately ripped
3 | (2/2) Accurately ripped
4 | (2/2) Accurately ripped
5 | (2/2) Accurately ripped
6 | (2/2) Accurately ripped
7 | (2/2) Accurately ripped
8 | (2/2) Accurately ripped
9 | (2/2) Accurately ripped
10 | (2/2) Accurately ripped
11 | (2/2) Accurately ripped
12 | (2/2) Accurately ripped
13 | (2/2) Accurately ripped
14 | (2/2) Accurately ripped
15 | (2/2) Accurately ripped
16 | (2/2) Accurately ripped
17 | (2/2) Accurately ripped
18 | (2/2) Accurately ripped
19 | (2/2) Accurately ripped

==== Контрольная сумма отчёта 11639A223929165B6CDD3F6B96B9982D93DAF39A9F6B3B97B1BB68BC9049DC24 ====

————————————————————

Exact Audio Copy V1.1 from 23. June 2015

Отчёт EAC об извлечении, выполненном 24. апреля 2017, 0:13

Unknown Artist / Unknown Title

Дисковод: Optiarc DVD RW AD-7243S Adapter: 1 ID: 0

Режим чтения : Достоверность
Использование точного потока : Да
Отключение кэша аудио : Да
Использование указателей C2 : Нет

Коррекция смещения при чтении : 48
Способность читать области Lead-in и Lead-out : Нет
Заполнение пропущенных сэмплов тишиной : Да
Удаление блоков с тишиной в начале и конце : Нет
При вычислениях CRC использовались нулевые сэмплы : Да
Интерфейс : Встроенный Win32-интерфейс для Win NT/2000

Выходной формат : Пользовательский кодировщик
Выбранный битрейт : 768 kBit/s
Качество : Высокий
Добавление ID3-тега : Нет
Утилита сжатия : C:\Program Files (x86)\Exact Audio Copy\FLAC\FLAC.EXE
Дополнительные параметры : -V -8 -T “Date=%year%” -T “Genre=%genre%” %source%

TOC извлечённого CD

Трек | Старт | Длительность | Начальный сектор | Конечный сектор
———————————————————————
1 | 0:00.00 | 1:59.71 | 0 | 8995
2 | 1:59.71 | 4:38.13 | 8996 | 29858
3 | 6:38.09 | 2:57.49 | 29859 | 43182
4 | 9:35.58 | 1:55.15 | 43183 | 51822
5 | 11:30.73 | 2:52.12 | 51823 | 64734
6 | 14:23.10 | 2:49.74 | 64735 | 77483
7 | 17:13.09 | 3:15.45 | 77484 | 92153
8 | 20:28.54 | 1:56.48 | 92154 | 100901
9 | 22:25.27 | 4:06.51 | 100902 | 119402
10 | 26:32.03 | 2:52.02 | 119403 | 132304
11 | 29:24.05 | 3:01.04 | 132305 | 145883
12 | 32:25.09 | 3:48.50 | 145884 | 163033
13 | 36:13.59 | 5:20.29 | 163034 | 187062
14 | 41:34.13 | 3:36.27 | 187063 | 203289
15 | 45:10.40 | 3:27.45 | 203290 | 218859
16 | 48:38.10 | 4:19.10 | 218860 | 238294
17 | 52:57.20 | 3:21.44 | 238295 | 253413
18 | 56:18.64 | 2:09.32 | 253414 | 263120
19 | 58:28.21 | 3:43.29 | 263121 | 279874

Характеристики диапазона извлечения и сообщения об ошибках

Выбранный диапазон

Имя файла G:\Документы\Музыка\Master\Paul Speckmann – Discography\Master\2003 – Pieces (Goat-07)\Unknown Artist – Unknown Title.wav

Пиковый уровень 99.9 %
Скорость извлечения 4.0 X
Качество диапазона 99.9 %
CRC теста F8149F16
CRC копии F8149F16
Копирование… OK

Ошибок не произошло

AccurateRip: сводка

Трек 1 отсутствует в базе данных
Трек 2 отсутствует в базе данных
Трек 3 отсутствует в базе данных
Трек 4 отсутствует в базе данных
Трек 5 отсутствует в базе данных
Трек 6 отсутствует в базе данных
Трек 7 отсутствует в базе данных
Трек 8 отсутствует в базе данных
Трек 9 отсутствует в базе данных
Трек 10 отсутствует в базе данных
Трек 11 отсутствует в базе данных
Трек 12 отсутствует в базе данных
Трек 13 отсутствует в базе данных
Трек 14 отсутствует в базе данных
Трек 15 отсутствует в базе данных
Трек 16 отсутствует в базе данных
Трек 17 отсутствует в базе данных
Трек 18 отсутствует в базе данных
Трек 19 отсутствует в базе данных

Ни одного трека нет в базе AccurateRip

Конец отчёта

—- CUETools DB Plugin V2.1.6

[CTDB TOCID: 4VmxYh2kQClOtTgHRWNUnjezu.k-] found
Submit result: 4VmxYh2kQClOtTgHRWNUnjezu.k- has been confirmed
Track | CTDB Status
1 | (2/2) Accurately ripped
2 | (2/2) Accurately ripped
3 | (2/2) Accurately ripped
4 | (2/2) Accurately ripped
5 | (2/2) Accurately ripped
6 | (2/2) Accurately ripped
7 | (2/2) Accurately ripped
8 | (2/2) Accurately ripped
9 | (2/2) Accurately ripped
10 | (2/2) Accurately ripped
11 | (2/2) Accurately ripped
12 | (2/2) Accurately ripped
13 | (2/2) Accurately ripped
14 | (2/2) Accurately ripped
15 | (2/2) Accurately ripped
16 | (2/2) Accurately ripped
17 | (2/2) Accurately ripped
18 | (2/2) Accurately ripped
19 | (2/2) Accurately ripped

==== Контрольная сумма отчёта 11639A223929165B6CDD3F6B96B9982D93DAF39A9F6B3B97B1BB68BC9049DC24 ====

REM GENRE “Death/Thrash Metal”
REM DISCID 040E9313
REM COMMENT “ExactAudioCopy v1.1”
PERFORMER “Master”
TITLE “Pieces”
FILE “Master – Pieces.flac” WAVE
TRACK 01 AUDIO
TITLE “Funeral Bitch – Seagrape Studios Chicago || 1984”
PERFORMER “Master”
INDEX 01 00:00:00
TRACK 02 AUDIO
TITLE “Submerged in Sin – Soto Sound Chicago || 1991”
PERFORMER “Master”
INDEX 01 01:59:71
TRACK 03 AUDIO
TITLE “Master – Seagrape Studios Chicago || 1984”
PERFORMER “Master”
INDEX 01 06:38:09
TRACK 04 AUDIO
TITLE “Mangled Dehumanization – Seagrape Studios Chicago || 1984”
PERFORMER “Master”
INDEX 01 09:35:58
TRACK 05 AUDIO
TITLE “Unknown Soldier – Seagrape Studios Chicago || 1984”
PERFORMER “Master”
INDEX 01 11:30:73
TRACK 06 AUDIO
TITLE “Terrorizer – Seagrape Studios Chicago || 1984”
PERFORMER “Master”
INDEX 01 14:23:10
TRACK 07 AUDIO
TITLE “Pay to Die – Solid Sound Studios || 1990”
PERFORMER “Master”
INDEX 01 17:13:09
TRACK 08 AUDIO
TITLE “Bass Solo – Hoffman Estates || 1990”
PERFORMER “Master”
INDEX 01 20:28:54
TRACK 09 AUDIO
TITLE “Children of the Grave – Solid Sound Studios || 1990”
PERFORMER “Master”
INDEX 01 22:25:27
TRACK 10 AUDIO
TITLE “Re-Entry and Destruction – Seagrape Studios || 1984”
PERFORMER “Master”
INDEX 01 26:32:03
TRACK 11 AUDIO
TITLE “Antidote (live) – Bullwinkles Thibedeaux LA 1997”
PERFORMER “Master”
INDEX 01 29:24:05
TRACK 12 AUDIO
TITLE “Cut through the Filth – Phoenix Arizona 1992”
PERFORMER “Master”
INDEX 01 32:25:09
TRACK 13 AUDIO
TITLE “Return to Vietnam – Festival Studios Kenner LA 1998”
PERFORMER “Master”
INDEX 01 36:13:59
TRACK 14 AUDIO
TITLE “Follow Your Savior – Sopa Studios Czech Rep 2000”
PERFORMER “Master”
INDEX 01 41:34:13
TRACK 15 AUDIO
TITLE “Judgement Of Will – Soto Sound Chicago || 1991 (Bonus Track)”
PERFORMER “Master”
INDEX 01 45:10:40
TRACK 16 AUDIO
TITLE “Redeem Deny – Live at Network Aaist Belgium 12-2-1990 (Bonus Track)”
PERFORMER “Master”
INDEX 01 48:38:10
TRACK 17 AUDIO
TITLE “Spoiled Brat – Double Noise Studios Tilburg Holland 1999 (Bonus Track)”
PERFORMER “Master”
INDEX 01 52:57:20
TRACK 18 AUDIO
TITLE “You Don’t Listen – Double Noise Studios Tilburg Holland 1999 (Bonus Track)”
PERFORMER “Master”
INDEX 01 56:18:64
TRACK 19 AUDIO
TITLE “Collection Of Souls – Solid Sound Studios Hoffman Estates || 1992 (Bonus Track)”
PERFORMER “Master”
INDEX 01 58:28:21


0

Publication author

offline 15 hours

Chaos

3
Comments: 4Publics: 3418Registration: 02-02-2019
Spread the Download

Leave a Reply

Your email address will not be published. Required fields are marked *

Enter the text from the image below
 

This site uses Akismet to reduce spam. Learn how your comment data is processed.