Master – Live (Limited Edition)




No Cover available

Artist: Master
Year: 2018
Genre: Metal
Notes: Discogs
Add. Notes: Limited Edition
Watch Songs on: YouTube
Cover incl.: Yes
Encoder: FLAC
Bitrate: ~800 kBit/s (44.1 kHz/16 Bit/s)
Log & Cue incl.: Yes/Yes
Size: 232,7 MB
Password: “slam” (without ” “)


All Downloads/Hosters are compatible

Download 1
KatFile.com
Turbobit.net
Rapidgator.net
FileFactory.com
Download 2
KatFile.com
Turbobit.net
Rapidgator.net
FileFactory.com

Tracklist:

1 Master 3:26
2 Subdue The Politician 5:20
3 Slaves To Society 3:46
4 Judgement Of Will 3:24
5 Submerged In Sin 4:48
6 Unknown Soldier 3:10
7 Re-Entry And Destruction 3:12
8 Collection Of Souls 3:47
9 Cut Thru The Filth 7:26
10 Chrildren Of The Grave 4:54

EAC-Log, CUE-Sheed & NFO:

Click to open spoiler
Exact Audio Copy V1.1 from 23. June 2015

Отчёт EAC об извлечении, выполненном 16. марта 2018, 23:37

Master / Live

Дисковод: Optiarc DVD RW AD-7243S Adapter: 1 ID: 2

Режим чтения : Достоверность
Использование точного потока : Да
Отключение кэша аудио : Да
Использование указателей C2 : Нет

Коррекция смещения при чтении : 48
Способность читать области Lead-in и Lead-out : Нет
Заполнение пропущенных сэмплов тишиной : Да
Удаление блоков с тишиной в начале и конце : Нет
При вычислениях CRC использовались нулевые сэмплы : Да
Интерфейс : Встроенный Win32-интерфейс для Win NT/2000

Выходной формат : Пользовательский кодировщик
Выбранный битрейт : 768 kBit/s
Качество : Высокий
Добавление ID3-тега : Нет
Утилита сжатия : C:\Program Files (x86)\Exact Audio Copy\FLAC\FLAC.EXE
Дополнительные параметры : -V -8 -T “Date=%year%” -T “Genre=%genre%” %source%

TOC извлечённого CD

Трек | Старт | Длительность | Начальный сектор | Конечный сектор
———————————————————————
1 | 0:00.00 | 3:26.35 | 0 | 15484
2 | 3:26.35 | 5:20.18 | 15485 | 39502
3 | 8:46.53 | 3:45.48 | 39503 | 56425
4 | 12:32.26 | 3:23.70 | 56426 | 71720
5 | 15:56.21 | 4:47.50 | 71721 | 93295
6 | 20:43.71 | 3:10.14 | 93296 | 107559
7 | 23:54.10 | 3:12.00 | 107560 | 121959
8 | 27:06.10 | 3:46.67 | 121960 | 138976
9 | 30:53.02 | 7:25.41 | 138977 | 172392
10 | 38:18.43 | 4:54.26 | 172393 | 194468

Характеристики диапазона извлечения и сообщения об ошибках

Выбранный диапазон

Имя файла G:\Документы\Музыка\Master\Paul Speckmann – Discography\Master\2018 – Live (MB 031)\Master – Live.wav

Пиковый уровень 41.6 %
Скорость извлечения 3.7 X
Качество диапазона 99.9 %
CRC теста 8245E26D
CRC копии 8245E26D
Копирование… OK

Ошибок не произошло

Конец отчёта

==== Контрольная сумма отчёта 5CFAFA6AAC4AA9544DA2170ADBE04A88CD414A6F33B6D9E86F577B2BD84FF66F ====

REM GENRE “Death/Thrash Metal”
REM DATE 2018
REM DISCID 840A200A
REM COMMENT “ExactAudioCopy v1.1”
PERFORMER “Master”
TITLE “Live”
FILE “Master – Live.flac” WAVE
TRACK 01 AUDIO
TITLE “Master”
PERFORMER “Master”
INDEX 01 00:00:00
TRACK 02 AUDIO
TITLE “Subdue The Politician”
PERFORMER “Master”
INDEX 00 03:24:35
INDEX 01 03:26:35
TRACK 03 AUDIO
TITLE “Slaves To Society”
PERFORMER “Master”
INDEX 00 08:44:53
INDEX 01 08:46:53
TRACK 04 AUDIO
TITLE “Judgement Of Will”
PERFORMER “Master”
INDEX 00 12:30:26
INDEX 01 12:32:26
TRACK 05 AUDIO
TITLE “Submerged In Sin”
PERFORMER “Master”
INDEX 00 15:54:21
INDEX 01 15:56:21
TRACK 06 AUDIO
TITLE “Unknown Soldier”
PERFORMER “Master”
INDEX 00 20:41:71
INDEX 01 20:43:71
TRACK 07 AUDIO
TITLE “Re-Entry And Destruction”
PERFORMER “Master”
INDEX 00 23:52:10
INDEX 01 23:54:10
TRACK 08 AUDIO
TITLE “Collection Of Souls”
PERFORMER “Master”
INDEX 00 27:04:10
INDEX 01 27:06:10
TRACK 09 AUDIO
TITLE “Cut Thru The Filth”
PERFORMER “Master”
INDEX 00 30:51:02
INDEX 01 30:53:02
TRACK 10 AUDIO
TITLE “Chrildren Of The Grave”
PERFORMER “Master”
INDEX 00 38:16:43
INDEX 01 38:18:43


0

Publication author

offline 15 hours

Chaos

3
Comments: 4Publics: 3418Registration: 02-02-2019
Spread the Download

Leave a Reply

Your email address will not be published. Required fields are marked *

Enter the text from the image below
 

This site uses Akismet to reduce spam. Learn how your comment data is processed.