Master – Collection Of Souls (Remixed & Remastered)




No Cover available


Artist: Master
Year: 1993/2014
Genre: Metal
Notes: Discogs
Add. Notes:
Watch Songs on: YouTube
Cover incl.: Yes
Encoder: FLAC
Bitrate: ~800 kBit/s (44.1 kHz/16 Bit/s)
Log & Cue incl.: Yes/Yes
Size: 291,2 MB
Password: “slam” (without ” “)


All Downloads/Hosters are compatible

Download 1
KatFile.com
Turbobit.net
Rapidgator.net
FileFactory.com
Download 2
KatFile.com
Turbobit.net
Rapidgator.net
FileFactory.com

Tracklist:

1 Inner Selfless Pride (Bonus Track) 
2 Justice Or Fate 
3 Blinded Faith 
4 Constant Reminders 
5 Glorify The Dead 
6 A Taste Of Insanity 
7 Jailbreak 
8 Hidden Stories 
9 Silver Spoon 
10 Collection Of Souls 
11 Jailbreak (Bonus Mix)

EAC-Log, CUE-Sheed & NFO:

Click to open spoiler
Exact Audio Copy V1.1 from 23. June 2015

Отчёт EAC об извлечении, выполненном 25. апреля 2017, 0:59

Master / Collection Of Souls (Remixed & Remastered)

Дисковод: Optiarc DVD RW AD-7243S Adapter: 1 ID: 0

Режим чтения : Достоверность
Использование точного потока : Да
Отключение кэша аудио : Да
Использование указателей C2 : Нет

Коррекция смещения при чтении : 48
Способность читать области Lead-in и Lead-out : Нет
Заполнение пропущенных сэмплов тишиной : Да
Удаление блоков с тишиной в начале и конце : Нет
При вычислениях CRC использовались нулевые сэмплы : Да
Интерфейс : Встроенный Win32-интерфейс для Win NT/2000

Выходной формат : Пользовательский кодировщик
Выбранный битрейт : 768 kBit/s
Качество : Высокий
Добавление ID3-тега : Нет
Утилита сжатия : C:\Program Files (x86)\Exact Audio Copy\FLAC\FLAC.EXE
Дополнительные параметры : -V -8 -T “Date=%year%” -T “Genre=%genre%” %source%

TOC извлечённого CD

Трек | Старт | Длительность | Начальный сектор | Конечный сектор
———————————————————————
1 | 0:00.00 | 5:06.11 | 0 | 22960
2 | 5:06.11 | 3:05.10 | 22961 | 36845
3 | 8:11.21 | 4:56.26 | 36846 | 59071
4 | 13:07.47 | 3:36.61 | 59072 | 75332
5 | 16:44.33 | 3:43.66 | 75333 | 92123
6 | 20:28.24 | 3:45.15 | 92124 | 109013
7 | 24:13.39 | 3:31.19 | 109014 | 124857
8 | 27:44.58 | 4:15.40 | 124858 | 144022
9 | 32:00.23 | 3:28.53 | 144023 | 159675
10 | 35:29.01 | 3:45.32 | 159676 | 176582
11 | 39:14.33 | 3:33.42 | 176583 | 192599

Характеристики диапазона извлечения и сообщения об ошибках

Выбранный диапазон

Имя файла G:\Документы\Музыка\Master\Paul Speckmann – Discography\Master\1993 – Collection of Souls\2014 – Collection Of Souls (Remixed & Remastered) (DOOM052CD1)\Master – Collection Of Souls (Remixed & Remastered).wav

Пиковый уровень 100.0 %
Скорость извлечения 3.6 X
Качество диапазона 99.9 %
CRC теста D37DD4AC
CRC копии D37DD4AC
Копирование… OK

Ошибок не произошло

AccurateRip: сводка

Трек 1 отсутствует в базе данных
Трек 2 отсутствует в базе данных
Трек 3 отсутствует в базе данных
Трек 4 отсутствует в базе данных
Трек 5 отсутствует в базе данных
Трек 6 отсутствует в базе данных
Трек 7 отсутствует в базе данных
Трек 8 отсутствует в базе данных
Трек 9 отсутствует в базе данных
Трек 10 отсутствует в базе данных
Трек 11 отсутствует в базе данных

Ни одного трека нет в базе AccurateRip

Конец отчёта

—- CUETools DB Plugin V2.1.6

[CTDB TOCID: nRUH8ozUAtA59mAI4kDGRg_xZn4-] found
Submit result: already submitted
Track | CTDB Status
1 | (2/2) Accurately ripped
2 | (2/2) Accurately ripped
3 | (2/2) Accurately ripped
4 | (2/2) Accurately ripped
5 | (2/2) Accurately ripped
6 | (2/2) Accurately ripped
7 | (2/2) Accurately ripped
8 | (2/2) Accurately ripped
9 | (2/2) Accurately ripped
10 | (2/2) Accurately ripped
11 | (2/2) Accurately ripped

==== Контрольная сумма отчёта E1F18B56B246F720CBB15A6E2499F449DAFF91B881269C6CEC614E2AB4879CE1 ====

————————————————————

Exact Audio Copy V1.1 from 23. June 2015

Отчёт EAC об извлечении, выполненном 25. апреля 2017, 0:59

Master / Collection Of Souls (Remixed & Remastered)

Дисковод: Optiarc DVD RW AD-7243S Adapter: 1 ID: 0

Режим чтения : Достоверность
Использование точного потока : Да
Отключение кэша аудио : Да
Использование указателей C2 : Нет

Коррекция смещения при чтении : 48
Способность читать области Lead-in и Lead-out : Нет
Заполнение пропущенных сэмплов тишиной : Да
Удаление блоков с тишиной в начале и конце : Нет
При вычислениях CRC использовались нулевые сэмплы : Да
Интерфейс : Встроенный Win32-интерфейс для Win NT/2000

Выходной формат : Пользовательский кодировщик
Выбранный битрейт : 768 kBit/s
Качество : Высокий
Добавление ID3-тега : Нет
Утилита сжатия : C:\Program Files (x86)\Exact Audio Copy\FLAC\FLAC.EXE
Дополнительные параметры : -V -8 -T “Date=%year%” -T “Genre=%genre%” %source%

TOC извлечённого CD

Трек | Старт | Длительность | Начальный сектор | Конечный сектор
———————————————————————
1 | 0:00.00 | 5:06.11 | 0 | 22960
2 | 5:06.11 | 3:05.10 | 22961 | 36845
3 | 8:11.21 | 4:56.26 | 36846 | 59071
4 | 13:07.47 | 3:36.61 | 59072 | 75332
5 | 16:44.33 | 3:43.66 | 75333 | 92123
6 | 20:28.24 | 3:45.15 | 92124 | 109013
7 | 24:13.39 | 3:31.19 | 109014 | 124857
8 | 27:44.58 | 4:15.40 | 124858 | 144022
9 | 32:00.23 | 3:28.53 | 144023 | 159675
10 | 35:29.01 | 3:45.32 | 159676 | 176582
11 | 39:14.33 | 3:33.42 | 176583 | 192599

Характеристики диапазона извлечения и сообщения об ошибках

Выбранный диапазон

Имя файла G:\Документы\Музыка\Master\Paul Speckmann – Discography\Master\1993 – Collection of Souls\2014 – Collection Of Souls (Remixed & Remastered) (DOOM052CD1)\Master – Collection Of Souls (Remixed & Remastered).wav

Пиковый уровень 100.0 %
Скорость извлечения 3.6 X
Качество диапазона 99.9 %
CRC теста D37DD4AC
CRC копии D37DD4AC
Копирование… OK

Ошибок не произошло

AccurateRip: сводка

Трек 1 отсутствует в базе данных
Трек 2 отсутствует в базе данных
Трек 3 отсутствует в базе данных
Трек 4 отсутствует в базе данных
Трек 5 отсутствует в базе данных
Трек 6 отсутствует в базе данных
Трек 7 отсутствует в базе данных
Трек 8 отсутствует в базе данных
Трек 9 отсутствует в базе данных
Трек 10 отсутствует в базе данных
Трек 11 отсутствует в базе данных

Ни одного трека нет в базе AccurateRip

Конец отчёта

—- CUETools DB Plugin V2.1.6

[CTDB TOCID: nRUH8ozUAtA59mAI4kDGRg_xZn4-] found
Submit result: already submitted
Track | CTDB Status
1 | (2/2) Accurately ripped
2 | (2/2) Accurately ripped
3 | (2/2) Accurately ripped
4 | (2/2) Accurately ripped
5 | (2/2) Accurately ripped
6 | (2/2) Accurately ripped
7 | (2/2) Accurately ripped
8 | (2/2) Accurately ripped
9 | (2/2) Accurately ripped
10 | (2/2) Accurately ripped
11 | (2/2) Accurately ripped

==== Контрольная сумма отчёта E1F18B56B246F720CBB15A6E2499F449DAFF91B881269C6CEC614E2AB4879CE1 ====

REM GENRE “Death/Thrash Metal”
REM DATE 2014
REM DISCID 890A080B
REM COMMENT “ExactAudioCopy v1.3”
PERFORMER “Master”
TITLE “Collection Of Souls (Remixed & Remastered)”
REM COMPOSER “”
FILE “Master – Collection Of Souls (Remixed & Remastered).flac” WAVE
TRACK 01 AUDIO
TITLE “Inner Selfless Pride (Bonus Track)”
PERFORMER “Master”
REM COMPOSER “”
INDEX 01 00:00:00
TRACK 02 AUDIO
TITLE “Justice Or Fate”
PERFORMER “Master”
REM COMPOSER “”
INDEX 01 05:06:11
TRACK 03 AUDIO
TITLE “Blinded Faith”
PERFORMER “Master”
REM COMPOSER “”
INDEX 01 08:11:21
TRACK 04 AUDIO
TITLE “Constant Reminders”
PERFORMER “Master”
REM COMPOSER “”
INDEX 01 13:07:47
TRACK 05 AUDIO
TITLE “Glorify The Dead”
PERFORMER “Master”
REM COMPOSER “”
INDEX 01 16:44:33
TRACK 06 AUDIO
TITLE “A Taste Of Insanity”
PERFORMER “Master”
REM COMPOSER “”
INDEX 01 20:28:24
TRACK 07 AUDIO
TITLE “Jailbreak (Thin Lizzy cover)”
PERFORMER “Master”
REM COMPOSER “”
INDEX 01 24:13:39
TRACK 08 AUDIO
TITLE “Hidden Stories”
PERFORMER “Master”
REM COMPOSER “”
INDEX 01 27:44:58
TRACK 09 AUDIO
TITLE “Silver Spoon”
PERFORMER “Master”
REM COMPOSER “”
INDEX 01 32:00:23
TRACK 10 AUDIO
TITLE “Collection Of Souls”
PERFORMER “Master”
REM COMPOSER “”
INDEX 01 35:29:01
TRACK 11 AUDIO
TITLE “Jailbreak (Thin Lizzy cover/Bonus Mix)”
PERFORMER “Master”
REM COMPOSER “”
INDEX 01 39:14:33


Leave a Reply

Your email address will not be published. Required fields are marked *

Enter the text from the image below
 

This site uses Akismet to reduce spam. Learn how your comment data is processed.