Master – Collection Of Souls (Remastered)




No Cover available

Artist: Master
Year: 1993/2009
Genre: Metal
Notes: Discogs
Add. Notes: Remastered
Watch Songs on: YouTube
Cover incl.: Yes
Encoder: FLAC
Bitrate: ~1000 kBit/s (44.1 kHz/16 Bit/s)
Log & Cue incl.: Yes/Yes
Size: 395,8 MB
Password: “slam” (without ” “)


All Downloads/Hosters are compatible

Download 1
KatFile.com
Turbobit.net
Rapidgator.net
FileFactory.com
Download 2
KatFile.com
Turbobit.net
Rapidgator.net
FileFactory.com

Tracklist:

Collection Of Souls
1 Constant Reminders 3:35
2 Taste Of Insanity 3:41
3 Hidden Stories 4:17
4 Glorify The Dead 3:44
5 Blinded Faith 5:01
6 Justice Or Fate 3:04
7 Jailbreak 3:33
8 Collection Of Souls 3:43
9 Silver Spoon 3:29

Final Word Demo
10 Where Are You Now? 3:38
11 Final Word 5:23
12 Prepare For The Fall 3:09

Cast The First Stone EP
13 Cast The First Stone 3:30
14 Fatso 0:28
15 Antidote 2:39

EAC-Log, CUE-Sheed & NFO:

Click to open spoiler
Exact Audio Copy V1.1 from 23. June 2015

Отчёт EAC об извлечении, выполненном 23. апреля 2017, 21:18

Master / Collection of Souls (Remastered)

Дисковод: Optiarc DVD RW AD-7243S Adapter: 1 ID: 0

Режим чтения : Достоверность
Использование точного потока : Да
Отключение кэша аудио : Да
Использование указателей C2 : Нет

Коррекция смещения при чтении : 48
Способность читать области Lead-in и Lead-out : Нет
Заполнение пропущенных сэмплов тишиной : Да
Удаление блоков с тишиной в начале и конце : Нет
При вычислениях CRC использовались нулевые сэмплы : Да
Интерфейс : Встроенный Win32-интерфейс для Win NT/2000

Выходной формат : Пользовательский кодировщик
Выбранный битрейт : 768 kBit/s
Качество : Высокий
Добавление ID3-тега : Нет
Утилита сжатия : C:\Program Files (x86)\Exact Audio Copy\FLAC\FLAC.EXE
Дополнительные параметры : -V -8 -T “Date=%year%” -T “Genre=%genre%” %source%

TOC извлечённого CD

Трек | Старт | Длительность | Начальный сектор | Конечный сектор
———————————————————————
1 | 0:00.00 | 3:35.69 | 0 | 16193
2 | 3:35.69 | 3:41.37 | 16194 | 32805
3 | 7:17.31 | 4:17.36 | 32806 | 52116
4 | 11:34.67 | 3:44.32 | 52117 | 68948
5 | 15:19.24 | 5:01.74 | 68949 | 91597
6 | 20:21.23 | 3:04.58 | 91598 | 105455
7 | 23:26.06 | 3:33.35 | 105456 | 121465
8 | 26:59.41 | 3:43.37 | 121466 | 138227
9 | 30:43.03 | 3:29.67 | 138228 | 153969
10 | 34:12.70 | 3:38.10 | 153970 | 170329
11 | 37:51.05 | 5:23.44 | 170330 | 194598
12 | 43:14.49 | 3:09.02 | 194599 | 208775
13 | 46:23.51 | 3:30.36 | 208776 | 224561
14 | 49:54.12 | 0:28.72 | 224562 | 226733
15 | 50:23.09 | 2:39.74 | 226734 | 238732

Характеристики диапазона извлечения и сообщения об ошибках

Выбранный диапазон

Имя файла G:\Документы\Музыка\Master\Paul Speckmann – Discography\Master\1993 – Collection of Souls\2009 – Collection of Souls (Remastered) (D-00193)\Master – Collection of Souls (Remastered).wav

Пиковый уровень 100.0 %
Скорость извлечения 3.9 X
Качество диапазона 100.0 %
CRC теста 9B4616FF
CRC копии 9B4616FF
Копирование… OK

Ошибок не произошло

AccurateRip: сводка

Трек 1 : извлечено точно (доверие 2) [46FAEBBD] (AR v1)
Трек 2 : извлечено точно (доверие 2) [3AD5D996] (AR v1)
Трек 3 : извлечено точно (доверие 2) [580D4661] (AR v1)
Трек 4 : извлечено точно (доверие 2) [196C938B] (AR v1)
Трек 5 : извлечено точно (доверие 2) [5CEB1271] (AR v1)
Трек 6 : извлечено точно (доверие 2) [C02619EA] (AR v1)
Трек 7 : извлечено точно (доверие 2) [7FDE4B2C] (AR v1)
Трек 8 : извлечено точно (доверие 2) [2E16AF8B] (AR v1)
Трек 9 : извлечено точно (доверие 2) [4DCB2669] (AR v1)
Трек 10 : извлечено точно (доверие 2) [BCFAE843] (AR v1)
Трек 11 : извлечено точно (доверие 2) [A5B01A1D] (AR v1)
Трек 12 : извлечено точно (доверие 2) [9F39A728] (AR v1)
Трек 13 : извлечено точно (доверие 2) [F25214CC] (AR v1)
Трек 14 : извлечено точно (доверие 2) [36DDEE63] (AR v1)
Трек 15 : извлечено точно (доверие 2) [8B1B768A] (AR v1)

Все треки извлечены точно

Конец отчёта

—- CUETools DB Plugin V2.1.6

[CTDB TOCID: H6aMaAybP6hPV6xToVl7uCFnQNA-] found
Submit result: H6aMaAybP6hPV6xToVl7uCFnQNA- has been confirmed
Track | CTDB Status
1 | (7/7) Accurately ripped
2 | (7/7) Accurately ripped
3 | (7/7) Accurately ripped
4 | (7/7) Accurately ripped
5 | (7/7) Accurately ripped
6 | (7/7) Accurately ripped
7 | (7/7) Accurately ripped
8 | (7/7) Accurately ripped
9 | (7/7) Accurately ripped
10 | (7/7) Accurately ripped
11 | (7/7) Accurately ripped
12 | (7/7) Accurately ripped
13 | (7/7) Accurately ripped
14 | (7/7) Accurately ripped
15 | (7/7) Accurately ripped

==== Контрольная сумма отчёта 9177D8417E9D38A129E41F47189C5F792C7AA901B858EDEBE21F35BAFBF0F2AB ====

————————————————————

Exact Audio Copy V1.1 from 23. June 2015

Отчёт EAC об извлечении, выполненном 23. апреля 2017, 21:18

Master / Collection of Souls (Remastered)

Дисковод: Optiarc DVD RW AD-7243S Adapter: 1 ID: 0

Режим чтения : Достоверность
Использование точного потока : Да
Отключение кэша аудио : Да
Использование указателей C2 : Нет

Коррекция смещения при чтении : 48
Способность читать области Lead-in и Lead-out : Нет
Заполнение пропущенных сэмплов тишиной : Да
Удаление блоков с тишиной в начале и конце : Нет
При вычислениях CRC использовались нулевые сэмплы : Да
Интерфейс : Встроенный Win32-интерфейс для Win NT/2000

Выходной формат : Пользовательский кодировщик
Выбранный битрейт : 768 kBit/s
Качество : Высокий
Добавление ID3-тега : Нет
Утилита сжатия : C:\Program Files (x86)\Exact Audio Copy\FLAC\FLAC.EXE
Дополнительные параметры : -V -8 -T “Date=%year%” -T “Genre=%genre%” %source%

TOC извлечённого CD

Трек | Старт | Длительность | Начальный сектор | Конечный сектор
———————————————————————
1 | 0:00.00 | 3:35.69 | 0 | 16193
2 | 3:35.69 | 3:41.37 | 16194 | 32805
3 | 7:17.31 | 4:17.36 | 32806 | 52116
4 | 11:34.67 | 3:44.32 | 52117 | 68948
5 | 15:19.24 | 5:01.74 | 68949 | 91597
6 | 20:21.23 | 3:04.58 | 91598 | 105455
7 | 23:26.06 | 3:33.35 | 105456 | 121465
8 | 26:59.41 | 3:43.37 | 121466 | 138227
9 | 30:43.03 | 3:29.67 | 138228 | 153969
10 | 34:12.70 | 3:38.10 | 153970 | 170329
11 | 37:51.05 | 5:23.44 | 170330 | 194598
12 | 43:14.49 | 3:09.02 | 194599 | 208775
13 | 46:23.51 | 3:30.36 | 208776 | 224561
14 | 49:54.12 | 0:28.72 | 224562 | 226733
15 | 50:23.09 | 2:39.74 | 226734 | 238732

Характеристики диапазона извлечения и сообщения об ошибках

Выбранный диапазон

Имя файла G:\Документы\Музыка\Master\Paul Speckmann – Discography\Master\1993 – Collection of Souls\2009 – Collection of Souls (Remastered) (D-00193)\Master – Collection of Souls (Remastered).wav

Пиковый уровень 100.0 %
Скорость извлечения 3.9 X
Качество диапазона 100.0 %
CRC теста 9B4616FF
CRC копии 9B4616FF
Копирование… OK

Ошибок не произошло

AccurateRip: сводка

Трек 1 : извлечено точно (доверие 2) [46FAEBBD] (AR v1)
Трек 2 : извлечено точно (доверие 2) [3AD5D996] (AR v1)
Трек 3 : извлечено точно (доверие 2) [580D4661] (AR v1)
Трек 4 : извлечено точно (доверие 2) [196C938B] (AR v1)
Трек 5 : извлечено точно (доверие 2) [5CEB1271] (AR v1)
Трек 6 : извлечено точно (доверие 2) [C02619EA] (AR v1)
Трек 7 : извлечено точно (доверие 2) [7FDE4B2C] (AR v1)
Трек 8 : извлечено точно (доверие 2) [2E16AF8B] (AR v1)
Трек 9 : извлечено точно (доверие 2) [4DCB2669] (AR v1)
Трек 10 : извлечено точно (доверие 2) [BCFAE843] (AR v1)
Трек 11 : извлечено точно (доверие 2) [A5B01A1D] (AR v1)
Трек 12 : извлечено точно (доверие 2) [9F39A728] (AR v1)
Трек 13 : извлечено точно (доверие 2) [F25214CC] (AR v1)
Трек 14 : извлечено точно (доверие 2) [36DDEE63] (AR v1)
Трек 15 : извлечено точно (доверие 2) [8B1B768A] (AR v1)

Все треки извлечены точно

Конец отчёта

—- CUETools DB Plugin V2.1.6

[CTDB TOCID: H6aMaAybP6hPV6xToVl7uCFnQNA-] found
Submit result: H6aMaAybP6hPV6xToVl7uCFnQNA- has been confirmed
Track | CTDB Status
1 | (7/7) Accurately ripped
2 | (7/7) Accurately ripped
3 | (7/7) Accurately ripped
4 | (7/7) Accurately ripped
5 | (7/7) Accurately ripped
6 | (7/7) Accurately ripped
7 | (7/7) Accurately ripped
8 | (7/7) Accurately ripped
9 | (7/7) Accurately ripped
10 | (7/7) Accurately ripped
11 | (7/7) Accurately ripped
12 | (7/7) Accurately ripped
13 | (7/7) Accurately ripped
14 | (7/7) Accurately ripped
15 | (7/7) Accurately ripped

==== Контрольная сумма отчёта 9177D8417E9D38A129E41F47189C5F792C7AA901B858EDEBE21F35BAFBF0F2AB ====

REM GENRE “Death/Thrash Metal”
REM DATE 2009
REM DISCID D70C6F0F
REM COMMENT “ExactAudioCopy v1.1”
PERFORMER “Master”
TITLE “Collection of Souls (Remastered)”
FILE “Master – Collection of Souls (Remastered).flac” WAVE
TRACK 01 AUDIO
TITLE “Constant Reminders”
PERFORMER “Master”
INDEX 01 00:00:00
TRACK 02 AUDIO
TITLE “Taste of Insanity”
PERFORMER “Master”
INDEX 01 03:35:69
TRACK 03 AUDIO
TITLE “Hidden Stories”
PERFORMER “Master”
INDEX 01 07:17:31
TRACK 04 AUDIO
TITLE “Glorify the Dead”
PERFORMER “Master”
INDEX 01 11:34:67
TRACK 05 AUDIO
TITLE “Blinded Faith”
PERFORMER “Master”
INDEX 01 15:19:24
TRACK 06 AUDIO
TITLE “Justice or Fate”
PERFORMER “Master”
INDEX 01 20:21:23
TRACK 07 AUDIO
TITLE “Jailbreak (Thin Lizzy cover)”
PERFORMER “Master”
INDEX 01 23:26:06
TRACK 08 AUDIO
TITLE “Collection of Souls”
PERFORMER “Master”
INDEX 01 26:59:41
TRACK 09 AUDIO
TITLE “Silver Spoon”
PERFORMER “Master”
INDEX 01 30:43:03
TRACK 10 AUDIO
TITLE “Where are You Now (Bonus Track from Final Word demo)”
PERFORMER “Master”
INDEX 00 34:10:70
INDEX 01 34:12:70
TRACK 11 AUDIO
TITLE “Final Word (Bonus Track from Final Word demo)”
PERFORMER “Master”
INDEX 01 37:51:05
TRACK 12 AUDIO
TITLE “Prepare for the Fall (Bonus Track from Final Word demo)”
PERFORMER “Master”
INDEX 01 43:14:49
TRACK 13 AUDIO
TITLE “Cast the First Stone (Bonus Track from Cast the First Stone EP) ”
PERFORMER “Master”
INDEX 00 46:21:51
INDEX 01 46:23:51
TRACK 14 AUDIO
TITLE “Fatso (Bonus Track from Cast the First Stone EP)”
PERFORMER “Master”
INDEX 01 49:54:12
TRACK 15 AUDIO
TITLE “Antidote (Bonus Track from Cast the First Stone EP)”
PERFORMER “Master”
INDEX 01 50:23:09


Leave a Reply

Your email address will not be published. Required fields are marked *

Enter the text from the image below
 

This site uses Akismet to reduce spam. Learn how your comment data is processed.