Mark Knopfler – What It Is (Promo)




[Total: 0    Average: 0/5]

Artist: Mark Knopfler
Year: 2000
Genre: Rock
Notes: Discogs
Add. Notes: Promo
Cover incl.: Yes
Encoder: FLAC
Bitrate: ~900 kBit/s (44.1 kHz/16 Bit/s)
Log & Cue incl.: Yes
Password: “slam” (without ” “)


All Downloads/Hosters are compatible

Download 1
KatFile.com
Turbobit.net
FileFactory.com
Rapidgator.net
Download 2
KatFile.com
Turbobit.net
FileFactory.com
Rapidgator.net
Download 3
KatFile.com
Turbobit.net
FileFactory.com
Rapidgator.net

Tracklist:

1 What It Is (Radio Edit) 3:33
2 What It Is (Album Version) 5:35

EAC-Log, CUE-Sheed & NFO:

Click to open spoiler
Exact Audio Copy V1.2 from 12. August 2016

EAC extraction logfile from 24. January 2017, 16:22

Mark Knopfler / What It Is (Mexican Promo)

Used drive : ASUS SDRW-08D1S-U Adapter: 1 ID: 2

Read mode : Secure
Utilize accurate stream : Yes
Defeat audio cache : Yes
Make use of C2 pointers : No

Read offset correction : 667
Overread into Lead-In and Lead-Out : No
Fill up missing offset samples with silence : Yes
Delete leading and trailing silent blocks : No
Null samples used in CRC calculations : Yes
Used interface : Native Win32 interface
for Win NT & 2000

Used output format : User Defined Encoder
Selected bitrate : 128 kBit/s
Quality : High
Add ID3 tag : No
Command line compressor : C:\Program Files
(x86)\Exact Audio Copy\Flac\flac.exe
Additional command line options : -V -8 -T “Date=%
year%” -T “Genre=%genre%” %source%

TOC of the extracted CD

Track | Start | Length | Start sector | End sector
———————————————————
1 | 0:00.00 | 3:39.48 | 0 | 16472
2 | 3:39.48 | 5:35.43 | 16473 | 41640
3 | 11:47.16 | 8:20.52 | 53041 | 90592

Range status and errors

Selected range

Filename C:\Users\Олег\Desktop\Mark\Mark
Knopfler – What It Is (Mexican Promo).wav

Peak level 97.6 %
Extraction speed 2.7 X
Range quality 100.0 %
Test CRC 7A1940C6
Copy CRC 7A1940C6
Copy OK

No errors occurred

AccurateRip summary

Track 1 accurately ripped (confidence 1) [1E8618D6]
(AR v2)
Track 2 accurately ripped (confidence 2) [9A4A3411]
(AR v1)

All tracks accurately ripped

End of status report

—- CUETools DB Plugin V2.1.6

[CTDB TOCID: 7tC1SPURTpF07ZAOafJZV5lpU.U-] found
Submit result: 7tC1SPURTpF07ZAOafJZV5lpU.U- has
been confirmed
Track | CTDB Status
1 | (1/1) Accurately ripped
2 | (1/1) Accurately ripped

==== Log checksum
85E055967751C19BCFFF20ADFD5A0F069808327979515
AF06C95E0BFFA3CACC2 ====

REM GENRE Rock
REM DATE 2000
REM DISCID 1704B703
REM COMMENT “ExactAudioCopy v1.2”
PERFORMER “Mark Knopfler”
TITLE “What It Is”
FILE “Mark Knopfler – What It Is.flac” WAVE
TRACK 01 AUDIO
TITLE “What It Is (Radio Edit)”
PERFORMER “Mark Knopfler”
INDEX 01 00:00:00
TRACK 02 AUDIO
TITLE “What It Is (Album Version)”
PERFORMER “Mark Knopfler”
INDEX 00 03:37:48
INDEX 01 03:39:48


Spread the Download

Leave a Reply

Your email address will not be published. Required fields are marked *

Enter the text from the image below
 

This site uses Akismet to reduce spam. Learn how your comment data is processed.