Mark Knopfler – Tracker (2 CD) (Limited Deluxe Edition)




No Cover available

Artist: Mark Knopfler
Year: 2015
Genre: Rock
Notes: Discogs
Add. Notes: Limited Deluxe Edition
Watch Songs on: YouTube
Cover incl.: Yes
Encoder: FLAC
Bitrate: ~800 kBit/s (44.1 kHz/16 Bit/s)
Log & Cue incl.: Yes/Yes
Size: 555,9 MB
Password: “slam” (without ” “)


All Downloads/Hosters are compatible

Download 1
KatFile.com
Turbobit.net
FileFactory.com
Rapidgator.net
NitroFlare.com
Download 2
KatFile.com
Turbobit.net
FileFactory.com
Rapidgator.net
NitroFlare.com

Tracklist:

CD1
01. Laughs And Jokes And Drinks And Smokes
02. Basil
03. River Towns
04. Skydiver
05. Mighty Man
06. Broken Bones
07. Long Cool Girl
08. Lights Of Taormina
09. Silver Eagle
10. Beryl
11. Wherever I Go

CD2
01. .38 Special
02. My Heart Has Never Changed
03. Terminal Of Tribute To
04. Heart Of Oak
05. Oklahoma Ponies
06. Time Will End All Sorrow

EAC-Log, CUE-Sheed & NFO:

Click to open spoiler
Exact Audio Copy V1.2 from 12. August 2016

EAC extraction logfile from 9. August 2017, 13:21

Mark Knopfler / Tracker

Used drive : ASUS SDRW-08D1S-U Adapter: 1 ID: 1

Read mode : Secure
Utilize accurate stream : Yes
Defeat audio cache : Yes
Make use of C2 pointers : No

Read offset correction : 667
Overread into Lead-In and Lead-Out : No
Fill up missing offset samples with silence : Yes
Delete leading and trailing silent blocks : No
Null samples used in CRC calculations : Yes
Used interface : Native Win32 interface for Win NT & 2000

Used output format : User Defined Encoder
Selected bitrate : 128 kBit/s
Quality : High
Add ID3 tag : No
Command line compressor : C:\Program Files (x86)\Exact Audio Copy\Flac\flac.exe
Additional command line options : -V -8 -T “Date=%year%” -T “Genre=%genre%” %source%

TOC of the extracted CD

Track | Start | Length | Start sector | End sector
———————————————————
1 | 0:00.00 | 6:40.59 | 0 | 30058
2 | 6:40.59 | 5:44.52 | 30059 | 55910
3 | 12:25.36 | 6:16.71 | 55911 | 84181
4 | 18:42.32 | 4:38.35 | 84182 | 105066
5 | 23:20.67 | 5:55.13 | 105067 | 131704
6 | 29:16.05 | 5:30.28 | 131705 | 156482
7 | 34:46.33 | 5:05.56 | 156483 | 179413
8 | 39:52.14 | 6:09.03 | 179414 | 207091
9 | 46:01.17 | 5:01.69 | 207092 | 229735
10 | 51:03.11 | 3:10.69 | 229736 | 244054
11 | 54:14.05 | 6:26.61 | 244055 | 273065

Range status and errors

Selected range

Filename C:\Users\Олег\Desktop\Tracker\Mark Knopfler – Tracker.wav

Peak level 100.0 %
Extraction speed 4.1 X
Range quality 100.0 %
Test CRC 8E379B46
Copy CRC 8E379B46
Copy OK

No errors occurred

AccurateRip summary

Track 1 accurately ripped (confidence 50) [C670228C] (AR v2)
Track 2 accurately ripped (confidence 50) [8F966F72] (AR v2)
Track 3 accurately ripped (confidence 50) [EEB35E7B] (AR v2)
Track 4 accurately ripped (confidence 50) [D5EC0A20] (AR v2)
Track 5 accurately ripped (confidence 50) [B4A2440A] (AR v2)
Track 6 accurately ripped (confidence 50) [EE3286E7] (AR v2)
Track 7 accurately ripped (confidence 50) [BA99A636] (AR v2)
Track 8 accurately ripped (confidence 50) [E412AB0A] (AR v2)
Track 9 accurately ripped (confidence 50) [0A733D0F] (AR v2)
Track 10 accurately ripped (confidence 50) [C79357A8] (AR v2)
Track 11 accurately ripped (confidence 49) [2407C214] (AR v2)

All tracks accurately ripped

End of status report

—- CUETools DB Plugin V2.1.6

[CTDB TOCID: zJm4g1aKpZ64qWEJXRTS6GaUT2E-] found
Submit result: already submitted
Track | CTDB Status
1 | (1483/1505) Accurately ripped
2 | (1483/1505) Accurately ripped
3 | (1482/1505) Accurately ripped
4 | (1493/1505) Accurately ripped
5 | (1491/1505) Accurately ripped
6 | (1482/1505) Accurately ripped, or (2/1505) differs in 239 samples @01:28:70-01:28:71
7 | (1492/1505) Accurately ripped
8 | (1481/1505) Accurately ripped
9 | (1465/1505) Accurately ripped, or (10/1505) differs in 11 samples @00:24:14
10 | (1478/1505) Accurately ripped
11 | (1473/1505) Accurately ripped

==== Log checksum 006D8562C9B42018D8141D0769614357D9CC40443A29AB7AC68BB098B420868B ====

Exact Audio Copy V1.2 from 12. August 2016

EAC extraction logfile from 9. August 2017, 13:38

Mark Knopfler / Tracker (Bonus Disc)

Used drive : ASUS SDRW-08D1S-U Adapter: 1 ID: 1

Read mode : Secure
Utilize accurate stream : Yes
Defeat audio cache : Yes
Make use of C2 pointers : No

Read offset correction : 667
Overread into Lead-In and Lead-Out : No
Fill up missing offset samples with silence : Yes
Delete leading and trailing silent blocks : No
Null samples used in CRC calculations : Yes
Used interface : Native Win32 interface for Win NT & 2000

Used output format : User Defined Encoder
Selected bitrate : 128 kBit/s
Quality : High
Add ID3 tag : No
Command line compressor : C:\Program Files (x86)\Exact Audio Copy\Flac\flac.exe
Additional command line options : -V -8 -T “Date=%year%” -T “Genre=%genre%” %source%

TOC of the extracted CD

Track | Start | Length | Start sector | End sector
———————————————————
1 | 0:00.00 | 2:47.51 | 0 | 12575
2 | 2:47.51 | 3:48.44 | 12576 | 29719
3 | 6:36.20 | 5:52.26 | 29720 | 56145
4 | 12:28.46 | 1:45.10 | 56146 | 64030
5 | 14:13.56 | 5:19.56 | 64031 | 88011
6 | 19:33.37 | 2:59.06 | 88012 | 101442

Range status and errors

Selected range

Filename C:\Users\Олег\Desktop\Tracker.Bonus\Mark Knopfler – Tracker (Bonus Disc).wav

Peak level 100.0 %
Extraction speed 3.1 X
Range quality 99.9 %
Test CRC 00CDF77D
Copy CRC 00CDF77D
Copy OK

No errors occurred

AccurateRip summary

Track 1 accurately ripped (confidence 21) [D5407773] (AR v2)
Track 2 accurately ripped (confidence 21) [B75DB1D5] (AR v2)
Track 3 accurately ripped (confidence 21) [864F9955] (AR v2)
Track 4 accurately ripped (confidence 21) [741B39A3] (AR v2)
Track 5 accurately ripped (confidence 21) [94D988C4] (AR v2)
Track 6 accurately ripped (confidence 21) [04FEF638] (AR v2)

All tracks accurately ripped

End of status report

—- CUETools DB Plugin V2.1.6

[CTDB TOCID: 57yhH8seE4pb7PROpiNoJB7F_SI-] found
Submit result: already submitted
Track | CTDB Status
1 | (35/35) Accurately ripped
2 | (35/35) Accurately ripped
3 | (34/35) Accurately ripped
4 | (35/35) Accurately ripped
5 | (35/35) Accurately ripped
6 | (35/35) Accurately ripped

==== Log checksum 5A9C7A045FCE8DCD8C4342E89C81312107A487F8D6B1A6A59956CAB5624FEA5B ====

REM GENRE Rock
REM DATE 2015
REM DISCID 920E380B
REM COMMENT “ExactAudioCopy v1.2”
PERFORMER “Mark Knopfler”
TITLE “Tracker”
FILE “Mark Knopfler – Tracker.flac” WAVE
TRACK 01 AUDIO
TITLE “Laughs And Jokes And Drinks And Smokes”
PERFORMER “Mark Knopfler”
INDEX 01 00:00:00
TRACK 02 AUDIO
TITLE “Basil”
PERFORMER “Mark Knopfler”
INDEX 00 06:40:11
INDEX 01 06:40:59
TRACK 03 AUDIO
TITLE “River Towns”
PERFORMER “Mark Knopfler”
INDEX 00 12:24:67
INDEX 01 12:25:36
TRACK 04 AUDIO
TITLE “Skydiver”
PERFORMER “Mark Knopfler”
INDEX 00 18:38:51
INDEX 01 18:42:32
TRACK 05 AUDIO
TITLE “Mighty Man”
PERFORMER “Mark Knopfler”
INDEX 00 23:20:14
INDEX 01 23:20:67
TRACK 06 AUDIO
TITLE “Broken Bones”
PERFORMER “Mark Knopfler”
INDEX 00 29:13:53
INDEX 01 29:16:05
TRACK 07 AUDIO
TITLE “Long Cool Girl”
PERFORMER “Mark Knopfler”
INDEX 00 34:41:36
INDEX 01 34:46:33
TRACK 08 AUDIO
TITLE “Lights Of Taormina”
PERFORMER “Mark Knopfler”
INDEX 01 39:52:14
TRACK 09 AUDIO
TITLE “Silver Eagle”
PERFORMER “Mark Knopfler”
INDEX 00 45:59:35
INDEX 01 46:01:17
TRACK 10 AUDIO
TITLE “Beryl”
PERFORMER “Mark Knopfler”
INDEX 00 51:00:70
INDEX 01 51:03:11
TRACK 11 AUDIO
TITLE “Wherever I Go”
PERFORMER “Mark Knopfler”
INDEX 00 54:12:19
INDEX 01 54:14:05

REM GENRE Rock
REM DATE 2015
REM DISCID 52054806
REM COMMENT “ExactAudioCopy v1.2”
PERFORMER “Mark Knopfler”
TITLE “Tracker (Bonus CD)”
FILE “Mark Knopfler – Tracker (Bonus CD).flac” WAVE
TRACK 01 AUDIO
TITLE “.38 Special”
PERFORMER “Mark Knopfler”
INDEX 01 00:00:00
TRACK 02 AUDIO
TITLE “My Heart Has Never Changed”
PERFORMER “Mark Knopfler”
INDEX 00 02:46:40
INDEX 01 02:47:51
TRACK 03 AUDIO
TITLE “Terminal Of Tribute To”
PERFORMER “Mark Knopfler”
INDEX 00 06:35:56
INDEX 01 06:36:20
TRACK 04 AUDIO
TITLE “Heart Of Oak”
PERFORMER “Mark Knopfler”
INDEX 00 12:27:67
INDEX 01 12:28:46
TRACK 05 AUDIO
TITLE “Oklahoma Ponies”
PERFORMER “Mark Knopfler”
INDEX 00 14:12:61
INDEX 01 14:13:56
TRACK 06 AUDIO
TITLE “Time Will End All Sorrow”
PERFORMER “Mark Knopfler”
INDEX 00 19:33:13
INDEX 01 19:33:37


Leave a Reply

Your email address will not be published. Required fields are marked *

Enter the text from the image below
 

This site uses Akismet to reduce spam. Learn how your comment data is processed.