Mark Knopfler – The Ragpicker’s Dream (Special Edition)




No Cover available

Artist: Mark Knopfler
Year: 2002
Genre: Rock
Notes: Discogs
Add. Notes: Special Edition
Watch Songs on: YouTube
Cover incl.: Yes
Encoder: FLAC
Bitrate: ~800 kBit/s (44.1 kHz/16 Bit/s)
Log & Cue incl.: Yes/Yes
Size: 500 MB
Password: “slam” (without ” “)


All Downloads/Hosters are compatible

Download 1
KatFile.com
Turbobit.net
Rapidgator.net
FileFactory.com
Download 2
KatFile.com
Turbobit.net
Rapidgator.net
FileFactory.com

Tracklist:

CD 1
1 Why Aye Man 6:14
2 Devil Baby 4:05
3 Hill Farmer's Blues 3:45
4 A Place Where We Used To Live 4:34
5 Quality Shoe 3:56
6 Fare Thee Well Northumberland 6:29
7 Marbletown 3:33
8 You Don't Know You're Born 5:20
9 Coyote 5:56
10 The Ragpicker's Dream 4:20
11 Daddy's Gone To Knoxville 2:48
12 Old Pigweed 4:34

CD 2
1 Why Aye Man 6:48
2 Quality Shoe 4:01
3 Sailing To Philadelphia 7:18
4 Brothers In Arms 9:03

EAC-Log, CUE-Sheed & NFO:

Click to open spoiler
Exact Audio Copy V1.0 beta 3 from 29. August 2011

EAC extraction logfile from 31. October 2013, 0:35

Mark Knopfler / The Ragpicker’s Dream

Used drive : ASUS DRW-24B1ST Adapter: 2 ID: 1

Read mode : Secure
Utilize accurate stream : Yes
Defeat audio cache : Yes
Make use of C2 pointers : No

Read offset correction : 6
Overread into Lead-In and Lead-Out : No
Fill up missing offset samples with silence : Yes
Delete leading and trailing silent blocks : No
Null samples used in CRC calculations : Yes
Used interface : Native Win32 interface for Win NT & 2000

Used output format : User Defined Encoder
Selected bitrate : 768 kBit/s
Quality : High
Add ID3 tag : No
Command line compressor : C:\Program Files\Exact Audio Copy\Flac\flac.exe
Additional command line options : -V -8 -T “Date=%year%” -T “Genre=%genre%” %source%

TOC of the extracted CD

Track | Start | Length | Start sector | End sector
———————————————————
1 | 0:00.00 | 6:14.29 | 0 | 28078
2 | 6:14.29 | 4:05.31 | 28079 | 46484
3 | 10:19.60 | 3:45.32 | 46485 | 63391
4 | 14:05.17 | 4:34.13 | 63392 | 83954
5 | 18:39.30 | 3:56.36 | 83955 | 101690
6 | 22:35.66 | 6:29.21 | 101691 | 130886
7 | 29:05.12 | 3:33.51 | 130887 | 146912
8 | 32:38.63 | 5:20.73 | 146913 | 170985
9 | 37:59.61 | 5:56.21 | 170986 | 197706
10 | 43:56.07 | 4:20.51 | 197707 | 217257
11 | 48:16.58 | 2:48.21 | 217258 | 229878
12 | 51:05.04 | 4:34.67 | 229879 | 250495

Range status and errors

Selected range

Filename H:\Музыка\(1983-2012) Mark Knopfler – Официальная дискография\Albums\(2002) The Ragpicker’s Dream [Mercury – 063 293-2]\Mark Knopfler – The Ragpicker’s Dream.wav

Peak level 100.0 %
Extraction speed 8.5 X
Range quality 99.9 %
Test CRC FC8B08D2
Copy CRC FC8B08D2
Copy OK

No errors occurred

AccurateRip summary

Track 1 accurately ripped (confidence 165) [9743B665] (AR v2)
Track 2 accurately ripped (confidence 166) [50A96C07] (AR v2)
Track 3 accurately ripped (confidence 163) [675A9842] (AR v2)
Track 4 accurately ripped (confidence 163) [74ACBE0B] (AR v2)
Track 5 accurately ripped (confidence 163) [0AAD8432] (AR v2)
Track 6 accurately ripped (confidence 163) [4779DDAB] (AR v2)
Track 7 accurately ripped (confidence 164) [635F6CD8] (AR v2)
Track 8 accurately ripped (confidence 164) [B08495CF] (AR v2)
Track 9 accurately ripped (confidence 164) [EC0B9943] (AR v2)
Track 10 accurately ripped (confidence 163) [D88FC0A0] (AR v2)
Track 11 accurately ripped (confidence 164) [6B071836] (AR v2)
Track 12 accurately ripped (confidence 163) [486DA847] (AR v2)

All tracks accurately ripped

End of status report

==== Log checksum 5952B043E8A0355434117A04133E60AFA9E53FDCC273AD3F2A9B7676E23D8F22 ====

Exact Audio Copy V1.0 beta 3 from 29. August 2011

EAC extraction logfile from 31. October 2013, 1:35

Mark Knopfler / The Ragpicker’s Dream (ECD)

Used drive : ASUS DRW-24B1ST Adapter: 2 ID: 1

Read mode : Secure
Utilize accurate stream : Yes
Defeat audio cache : Yes
Make use of C2 pointers : No

Read offset correction : 6
Overread into Lead-In and Lead-Out : No
Fill up missing offset samples with silence : Yes
Delete leading and trailing silent blocks : No
Null samples used in CRC calculations : Yes
Used interface : Native Win32 interface for Win NT & 2000

Used output format : User Defined Encoder
Selected bitrate : 768 kBit/s
Quality : High
Add ID3 tag : No
Command line compressor : C:\Program Files\Exact Audio Copy\Flac\flac.exe
Additional command line options : -V -8 -T “Date=%year%” -T “Genre=%genre%” %source%

TOC of the extracted CD

Track | Start | Length | Start sector | End sector
———————————————————
1 | 0:00.00 | 6:48.10 | 0 | 30609
2 | 6:48.10 | 4:01.19 | 30610 | 48703
3 | 10:49.29 | 7:18.16 | 48704 | 81569
4 | 18:07.45 | 9:02.37 | 81570 | 122256
5 | 29:42.07 | 7:35.30 | 133657 | 167811

Range status and errors

Selected range

Filename H:\Музыка\(1983-2012) Mark Knopfler – Официальная дискография\Albums\(2002) The Ragpicker’s Dream [Mercury – 063 293-2]\Mark Knopfler – The Ragpicker’s Dream (ECD).wav

Peak level 99.4 %
Extraction speed 7.1 X
Range quality 99.9 %
Test CRC 33634883
Copy CRC 33634883
Copy OK

No errors occurred

AccurateRip summary

Track 1 accurately ripped (confidence 86) [E8D77BB4] (AR v2)
Track 2 accurately ripped (confidence 87) [1A2F4AC2] (AR v2)
Track 3 accurately ripped (confidence 87) [61C3424A] (AR v2)
Track 4 accurately ripped (confidence 88) [2125F683] (AR v2)

All tracks accurately ripped

End of status report

==== Log checksum E7F43B37E7136EB707D86B82EE82E5A1A828F966F0C183DF5C50F9A0CB93CC53 ====

REM GENRE Rock
REM DATE 2002
REM DISCID 3908BD05
REM COMMENT “ExactAudioCopy v1.0b3”
CATALOG 0044006329529
PERFORMER “Mark Knopfler”
TITLE “The Ragpicker’s Dream (ECD)”
FILE “Mark Knopfler – The Ragpicker’s Dream (ECD).flac” WAVE
TRACK 01 AUDIO
TITLE “Why Aye Man (Live at Shepherds Bush Empire)”
PERFORMER “Mark Knopfler”
ISRC TbF080201282
INDEX 01 00:00:00
TRACK 02 AUDIO
TITLE “Quality Shoe (Live at Shepherds Bush Empire)”
PERFORMER “Mark Knopfler”
ISRC TbF080201283
INDEX 01 06:48:10
TRACK 03 AUDIO
TITLE “Sailing To Philadelphia (Live at Massey Hall, Toronto)”
PERFORMER “Mark Knopfler”
ISRC TbF080201286
INDEX 01 10:49:29
TRACK 04 AUDIO
TITLE “Brothers In Arms (Live at Massey Hall, Toronto)”
PERFORMER “Mark Knopfler”
ISRC TbF080201287
INDEX 00 18:06:63
INDEX 01 18:07:45

REM GENRE Rock
REM DATE 2002
REM DISCID B10D0B0C
REM COMMENT “ExactAudioCopy v1.0b3”
CATALOG 0044006329222
PERFORMER “Mark Knopfler”
TITLE “The Ragpicker’s Dream”
FILE “Mark Knopfler – The Ragpicker’s Dream.flac” WAVE
TRACK 01 AUDIO
TITLE “Why Aye Man”
PERFORMER “Mark Knopfler”
ISRC TbF080201253
INDEX 01 00:00:00
TRACK 02 AUDIO
TITLE “Devil Baby”
PERFORMER “Mark Knopfler”
ISRC TbF080201254
INDEX 00 06:12:36
INDEX 01 06:14:29
TRACK 03 AUDIO
TITLE “Hill Farmer’s Blues”
PERFORMER “Mark Knopfler”
ISRC TbF080201255
INDEX 00 10:17:00
INDEX 01 10:19:60
TRACK 04 AUDIO
TITLE “A Place Where We Used To Live”
PERFORMER “Mark Knopfler”
ISRC TbF080201256
INDEX 00 14:04:22
INDEX 01 14:05:17
TRACK 05 AUDIO
TITLE “Quality Shoe”
PERFORMER “Mark Knopfler”
ISRC TbF080201257
INDEX 00 18:37:14
INDEX 01 18:39:30
TRACK 06 AUDIO
TITLE “Fare Thee Well Northumberland”
PERFORMER “Mark Knopfler”
ISRC TbF080201258
INDEX 00 22:31:16
INDEX 01 22:35:66
TRACK 07 AUDIO
TITLE “Marbletown”
PERFORMER “Mark Knopfler”
ISRC TbF080201259
INDEX 00 29:03:08
INDEX 01 29:05:12
TRACK 08 AUDIO
TITLE “You Don’t Know You’re Born”
PERFORMER “Mark Knopfler”
ISRC TbF080201260
INDEX 01 32:38:63
TRACK 09 AUDIO
TITLE “Coyote”
PERFORMER “Mark Knopfler”
ISRC TbF080201261
INDEX 00 37:57:60
INDEX 01 37:59:61
TRACK 10 AUDIO
TITLE “The Ragpicker’s Dream”
PERFORMER “Mark Knopfler”
ISRC TbF080201262
INDEX 00 43:55:16
INDEX 01 43:56:07
TRACK 11 AUDIO
TITLE “Daddy’s Gone To Knoxville”
PERFORMER “Mark Knopfler”
ISRC TbF080201263
INDEX 00 48:16:45
INDEX 01 48:16:58
TRACK 12 AUDIO
TITLE “Old Pigweed”
PERFORMER “Mark Knopfler”
ISRC TbF080201264
INDEX 00 51:04:05
INDEX 01 51:05:04


Leave a Reply

Your email address will not be published. Required fields are marked *

Enter the text from the image below
 

This site uses Akismet to reduce spam. Learn how your comment data is processed.