Mark Knopfler – Shangri-La




No Cover available


Artist: Mark Knopfler
Year: 2004
Genre: Rock
Notes: Discogs
Add. Notes:
Watch Songs on: YouTube
Cover incl.: Yes
Encoder: FLAC
Bitrate: ~800 kBit/s (44.1 kHz/16 Bit/s)
Log & Cue incl.: Yes/Yes
Size: 551,9 MB
Password: “slam” (without ” “)


All Downloads/Hosters are compatible

Download 1
KatFile.com
Turbobit.net
Rapidgator.net
FileFactory.com
Download 2
KatFile.com
Turbobit.net
Rapidgator.net
FileFactory.com

Tracklist:

1 5.15 a.m. 5:54
2 Boom, Like That 5:49
3 Sucker Row 4:56
4 The Trawlerman's Song 5:02
5 Back To Tupelo 4:31
6 Our Shangri-La 5:41
7 Everybody Pays 5:24
8 Song For Sonny Liston 5:06
9 Whoop De Doo 3:53
10 Postcards From Paraguay 4:07
11 All That Matters 3:08
12 Stand Up Guy 4:32
13 Donegan's Gone 3:05
14 Don't Crash The Ambulance 5:06

EAC-Log, CUE-Sheed & NFO:

Click to open spoiler
Exact Audio Copy V1.0 beta 3 from 29. August 2011

EAC extraction logfile from 18. October 2014, 20:24

Mark Knopfler / Shangri-La

Used drive : PLEXTOR DVDR PX-L890SA Adapter: 2 ID: 1

Read mode : Secure
Utilize accurate stream : Yes
Defeat audio cache : Yes
Make use of C2 pointers : No

Read offset correction : 6
Overread into Lead-In and Lead-Out : No
Fill up missing offset samples with silence : Yes
Delete leading and trailing silent blocks : No
Null samples used in CRC calculations : Yes
Used interface : Native Win32 interface for Win NT & 2000

Used output format : User Defined Encoder
Selected bitrate : 768 kBit/s
Quality : High
Add ID3 tag : No
Command line compressor : G:\Program Files\Exact Audio Copy\FLAC\FLAC.EXE
Additional command line options : -V -8 -T “Date=%year%” -T “Genre=%genre%” %source%

TOC of the extracted CD

Track | Start | Length | Start sector | End sector
———————————————————
1 | 0:00.00 | 5:54.52 | 0 | 26601
2 | 5:54.52 | 5:49.08 | 26602 | 52784
3 | 11:43.60 | 4:56.27 | 52785 | 75011
4 | 16:40.12 | 5:02.28 | 75012 | 97689
5 | 21:42.40 | 4:31.67 | 97690 | 118081
6 | 26:14.32 | 5:41.30 | 118082 | 143686
7 | 31:55.62 | 5:24.33 | 143687 | 168019
8 | 37:20.20 | 5:06.55 | 168020 | 191024
9 | 42:27.00 | 3:53.42 | 191025 | 208541
10 | 46:20.42 | 4:07.35 | 208542 | 227101
11 | 50:28.02 | 3:08.68 | 227102 | 241269
12 | 53:36.70 | 4:32.70 | 241270 | 261739
13 | 58:09.65 | 3:05.62 | 261740 | 275676
14 | 61:15.52 | 5:06.38 | 275677 | 298664

Range status and errors

Selected range

Filename H:\MUSIC\Mark Knopfler\2004. Mark Knopfler – Shangri-La (Mercury 9867260, EU)\Mark Knopfler – Shangri-La.wav

Peak level 98.8 %
Extraction speed 6.3 X
Range quality 100.0 %
Test CRC 738C4912
Copy CRC 738C4912
Copy OK

No errors occurred

AccurateRip summary

Track 1 accurately ripped (confidence 200) [27EF819B] (AR v2)
Track 2 accurately ripped (confidence 200) [3209540D] (AR v2)
Track 3 accurately ripped (confidence 200) [DD785A83] (AR v2)
Track 4 accurately ripped (confidence 200) [3DA02804] (AR v2)
Track 5 accurately ripped (confidence 200) [B2BAEDCC] (AR v2)
Track 6 accurately ripped (confidence 200) [84945442] (AR v2)
Track 7 accurately ripped (confidence 200) [3CD6662D] (AR v2)
Track 8 accurately ripped (confidence 200) [EBD37DFD] (AR v2)
Track 9 accurately ripped (confidence 200) [75EF43E1] (AR v2)
Track 10 accurately ripped (confidence 200) [E160835A] (AR v2)
Track 11 accurately ripped (confidence 200) [4E0CD9C7] (AR v2)
Track 12 accurately ripped (confidence 200) [A6CA43F0] (AR v2)
Track 13 accurately ripped (confidence 200) [6646FF65] (AR v2)
Track 14 accurately ripped (confidence 200) [FEBA6C2A] (AR v2)

All tracks accurately ripped

End of status report

==== Log checksum EAF19F51CF77653C1333860C29ACC5A875601582D309E5BAEEECDAA5D09F025D ====

REM GENRE Rock
REM DATE 2004
REM DISCID B90F8E0E
REM COMMENT “ExactAudioCopy v1.0b3”
PERFORMER “Mark Knopfler”
TITLE “Shangri-La”
FILE “Mark Knopfler – Shangri-La.flac” WAVE
TRACK 01 AUDIO
TITLE “5.15 A.M.”
PERFORMER “Mark Knopfler”
INDEX 01 00:00:00
TRACK 02 AUDIO
TITLE “Boom, Like That”
PERFORMER “Mark Knopfler”
INDEX 00 05:54:00
INDEX 01 05:54:52
TRACK 03 AUDIO
TITLE “Sucker Row”
PERFORMER “Mark Knopfler”
INDEX 01 11:43:60
TRACK 04 AUDIO
TITLE “The Trawlerman’s Song”
PERFORMER “Mark Knopfler”
INDEX 00 16:39:12
INDEX 01 16:40:12
TRACK 05 AUDIO
TITLE “Back To Tupelo”
PERFORMER “Mark Knopfler”
INDEX 00 21:40:60
INDEX 01 21:42:40
TRACK 06 AUDIO
TITLE “Our Shangri-La”
PERFORMER “Mark Knopfler”
INDEX 00 26:11:35
INDEX 01 26:14:32
TRACK 07 AUDIO
TITLE “Everybody Pays”
PERFORMER “Mark Knopfler”
INDEX 01 31:55:62
TRACK 08 AUDIO
TITLE “Song For Sonny Liston”
PERFORMER “Mark Knopfler”
INDEX 00 37:18:45
INDEX 01 37:20:20
TRACK 09 AUDIO
TITLE “Whoop De Doo”
PERFORMER “Mark Knopfler”
INDEX 01 42:27:00
TRACK 10 AUDIO
TITLE “Postcards From Paraguay”
PERFORMER “Mark Knopfler”
INDEX 00 46:16:20
INDEX 01 46:20:42
TRACK 11 AUDIO
TITLE “All That Matters”
PERFORMER “Mark Knopfler”
INDEX 00 50:25:30
INDEX 01 50:28:02
TRACK 12 AUDIO
TITLE “Stand Up Guy”
PERFORMER “Mark Knopfler”
INDEX 01 53:36:70
TRACK 13 AUDIO
TITLE “Donegan’s Gone”
PERFORMER “Mark Knopfler”
INDEX 01 58:09:65
TRACK 14 AUDIO
TITLE “Don’t Crash The Ambulance”
PERFORMER “Mark Knopfler”
INDEX 00 61:09:67
INDEX 01 61:15:52


0

Publication author

offline 4 days

Chaos

3
Comments: 4Publics: 3565Registration: 02-02-2019
Spread the Download

Leave a Reply

Your email address will not be published. Required fields are marked *

Enter the text from the image below
 

This site uses Akismet to reduce spam. Learn how your comment data is processed.