Mark Knopfler – Sailing To Philadelphia




Artist: Mark Knopfler
Year: 2000
Genre: Rock
Notes: Discogs
Add. Notes:
Cover incl.: Yes
Encoder: FLAC
Bitrate: ~800 kBit/s (44.1 kHz/16 Bit/s)
Log & Cue incl.: Yes
Size: 494,7 MB
Password: “slam” (without ” “)


All Downloads/Hosters are compatible

Download 1
KatFile.com
Turbobit.net
FileFactory.com
Rapidgator.net
Download 2
KatFile.com
Turbobit.net
FileFactory.com
Rapidgator.net

Tracklist:

1 What It Is 4:57
2 Sailing To Philadelphia 5:29
3 Who's Your Baby Now 3:06
4 Baloney Again 5:09
5 The Last Laugh 3:22
6 Silvertown Blues 5:32
7 El Macho 5:29
8 Prairie Wedding 4:26
9 Wanderlust 3:52
10 Speedway At Nazareth 6:23
11 Junkie Doll 4:35
12 Sands Of Nevada 3:58
13 One More Matinee 4:05

EAC-Log, CUE-Sheed & NFO:

Click to open spoiler
Exact Audio Copy V1.0 beta 3 from 29. August 2011

EAC extraction logfile from 20. November 2013, 0:43

Mark Knopfler / Sailing To Philadelphia

Used drive : TSSTcorpCDDVDW SN-208BB Adapter: 2 ID: 0

Read mode : Secure
Utilize accurate stream : Yes
Defeat audio cache : Yes
Make use of C2 pointers : No

Read offset correction : 6
Overread into Lead-In and Lead-Out : No
Fill up missing offset samples with silence : Yes
Delete leading and trailing silent blocks : No
Null samples used in CRC calculations : Yes
Used interface : Native Win32 interface for Win NT & 2000

Used output format : User Defined Encoder
Selected bitrate : 768 kBit/s
Quality : High
Add ID3 tag : No
Command line compressor : C:\Program Files (x86)\Exact Audio Copy\Flac\flac.exe
Additional command line options : -V -8 -T “Date=%year%” -T “Genre=%genre%” %source%

TOC of the extracted CD

Track | Start | Length | Start sector | End sector
———————————————————
1 | 0:00.00 | 4:57.50 | 0 | 22324
2 | 4:57.50 | 5:29.55 | 22325 | 47054
3 | 10:27.30 | 3:06.07 | 47055 | 61011
4 | 13:33.37 | 5:09.55 | 61012 | 84241
5 | 18:43.17 | 3:22.43 | 84242 | 99434
6 | 22:05.60 | 5:32.12 | 99435 | 124346
7 | 27:37.72 | 5:29.35 | 124347 | 149056
8 | 33:07.32 | 4:26.65 | 149057 | 169071
9 | 37:34.22 | 3:52.50 | 169072 | 186521
10 | 41:26.72 | 6:23.15 | 186522 | 215261
11 | 47:50.12 | 4:35.23 | 215262 | 235909
12 | 52:25.35 | 3:58.37 | 235910 | 253796
13 | 56:23.72 | 4:05.58 | 253797 | 272229

Range status and errors

Selected range

Filename H:\(1983-2012) Mark Knopfler – Официальная дискография\(2000) Sailing To Philadelphia [Mercury – 542 546-2]\Mark Knopfler – Sailing To Philadelphia.wav

Peak level 95.1 %
Extraction speed 4.5 X
Range quality 99.9 %
Test CRC 9D86156A
Copy CRC 9D86156A
Copy OK

No errors occurred

AccurateRip summary

Track 1 accurately ripped (confidence 200) [57CDB76D] (AR v2)
Track 2 accurately ripped (confidence 200) [8B1DE29E] (AR v2)
Track 3 accurately ripped (confidence 200) [B4404EBD] (AR v2)
Track 4 accurately ripped (confidence 200) [56BA00B1] (AR v2)
Track 5 accurately ripped (confidence 200) [9A2B8A4A] (AR v2)
Track 6 accurately ripped (confidence 200) [ABB3287B] (AR v2)
Track 7 accurately ripped (confidence 200) [57AD042A] (AR v2)
Track 8 accurately ripped (confidence 200) [E3C7B792] (AR v2)
Track 9 accurately ripped (confidence 200) [90E71617] (AR v2)
Track 10 accurately ripped (confidence 200) [82D2E5F5] (AR v2)
Track 11 accurately ripped (confidence 200) [4CB374BF] (AR v2)
Track 12 accurately ripped (confidence 200) [99983EE6] (AR v2)
Track 13 accurately ripped (confidence 200) [D8514DA8] (AR v2)

All tracks accurately ripped

End of status report

==== Log checksum 9065F551194D6CB82744E60C5CC080D5E923452598635F3552DB2884E56AB4B8 ====

REM GENRE Rock
REM DATE 2000
REM DISCID D50E2D0D
REM COMMENT “ExactAudioCopy v1.0b3”
PERFORMER “Mark Knopfler”
TITLE “Sailing To Philadelphia”
FILE “Mark Knopfler – Sailing To Philadelphia.flac” WAVE
TRACK 01 AUDIO
TITLE “What It Is”
PERFORMER “Mark Knopfler”
ISRC GBF080000154
INDEX 01 00:00:00
TRACK 02 AUDIO
TITLE “Sailing To Philadelphia”
PERFORMER “Mark Knopfler”
ISRC GBF080000155
INDEX 00 04:55:67
INDEX 01 04:57:50
TRACK 03 AUDIO
TITLE “Who’s Your Baby Now”
PERFORMER “Mark Knopfler”
ISRC GBFO80000156
INDEX 00 10:26:22
INDEX 01 10:27:30
TRACK 04 AUDIO
TITLE “Baloney Again”
PERFORMER “Mark Knopfler”
ISRC GBFO80000157
INDEX 00 13:31:20
INDEX 01 13:33:37
TRACK 05 AUDIO
TITLE “The Last Laugh”
PERFORMER “Mark Knopfler”
ISRC GBF080000158
INDEX 00 18:40:47
INDEX 01 18:43:17
TRACK 06 AUDIO
TITLE “Silvertown Blues”
PERFORMER “Mark Knopfler”
ISRC GBFO80000159
INDEX 00 22:03:47
INDEX 01 22:05:60
TRACK 07 AUDIO
TITLE “El Macho”
PERFORMER “Mark Knopfler”
ISRC GBFO80000160
INDEX 00 27:36:07
INDEX 01 27:37:72
TRACK 08 AUDIO
TITLE “Prairie Wedding”
PERFORMER “Mark Knopfler”
ISRC GBF080000161
INDEX 00 33:05:42
INDEX 01 33:07:32
TRACK 09 AUDIO
TITLE “Wanderlust”
PERFORMER “Mark Knopfler”
ISRC GBFO80000162
INDEX 00 37:32:20
INDEX 01 37:34:22
TRACK 10 AUDIO
TITLE “Speedway At Nazareth”
PERFORMER “Mark Knopfler”
ISRC GBF080000163
INDEX 01 41:26:72
TRACK 11 AUDIO
TITLE “Junkie Doll”
PERFORMER “Mark Knopfler”
ISRC GBFO80000164
INDEX 00 47:48:01
INDEX 01 47:50:12
TRACK 12 AUDIO
TITLE “Sands Of Nevada”
PERFORMER “Mark Knopfler”
ISRC GBF080000165
INDEX 00 52:24:15
INDEX 01 52:25:35
TRACK 13 AUDIO
TITLE “One More Matinee”
PERFORMER “Mark Knopfler”
ISRC GBF080000166
INDEX 00 56:22:40
INDEX 01 56:23:72


Leave a Reply

Your email address will not be published. Required fields are marked *

This site uses Akismet to reduce spam. Learn how your comment data is processed.