Mark Knopfler – Sailing To Philadelphia (Special Edition)




No Cover available

Artist: Mark Knopfler
Year: 2000
Genre: Rock
Notes: Discogs
Add. Notes: Special Edition
Watch Songs on: YouTube
Cover incl.: Yes
Encoder: FLAC
Bitrate: ~800 kBit/s (44.1 kHz/16 Bit/s)
Log & Cue incl.: Yes/Yes
Size: 537,1 MB
Password: “slam” (without ” “)


All Downloads/Hosters are compatible

Download 1
KatFile.com
Turbobit.net
FileFactory.com
Rapidgator.net
Download 2
KatFile.com
Turbobit.net
FileFactory.com
Rapidgator.net

Tracklist:

1 What It Is 
2 Sailing To Philadelphia 
3 Who's Your Baby Now 
4 Baloney Again 
5 The Last Laugh 
6 Do America 
7 Silvertown Blues 
8 El Macho 
9 Prairie Wedding 
10 Wanderlust 
11 Speedway At Nazareth 
12 Junkie Doll 
13 Sands Of Nevada 

Bonus Track
14 One More Matinee

EAC-Log, CUE-Sheed & NFO:

Click to open spoiler
Exact Audio Copy V1.0 beta 6 from 9. April 2015

EAC extraction logfile from 22. October 2016, 23:52

Mark Knopfler / Sailing to Philadelphia

Used drive : PIONEER DVD-RW DVR-215 Adapter: 1 ID: 1

Read mode : Secure
Utilize accurate stream : Yes
Defeat audio cache : Yes
Make use of C2 pointers : No

Read offset correction : 48
Overread into Lead-In and Lead-Out : No
Fill up missing offset samples with silence : Yes
Delete leading and trailing silent blocks : No
Null samples used in CRC calculations : Yes
Used interface : Native Win32 interface for Win NT & 2000

Used output format : User Defined Encoder
Selected bitrate : 1024 kBit/s
Quality : High
Add ID3 tag : No
Command line compressor : C:\Program Files (x86)\Exact Audio Copy\FLAC\FLAC.EXE
Additional command line options : -V -8 -T “Date=%year%” -T “Genre=%genre%” %source%

TOC of the extracted CD

Track | Start | Length | Start sector | End sector
———————————————————
1 | 0:00.00 | 4:58.09 | 0 | 22358
2 | 4:58.09 | 5:29.48 | 22359 | 47081
3 | 10:27.57 | 3:06.12 | 47082 | 61043
4 | 13:33.69 | 5:09.64 | 61044 | 84282
5 | 18:43.58 | 3:21.08 | 84283 | 99365
6 | 22:04.66 | 4:11.44 | 99366 | 118234
7 | 26:16.35 | 5:30.68 | 118235 | 143052
8 | 31:47.28 | 5:28.03 | 143053 | 167655
9 | 37:15.31 | 4:26.74 | 167656 | 187679
10 | 41:42.30 | 3:52.17 | 187680 | 205096
11 | 45:34.47 | 6:23.37 | 205097 | 233858
12 | 51:58.09 | 4:35.21 | 233859 | 254504
13 | 56:33.30 | 3:58.30 | 254505 | 272384
14 | 60:31.60 | 4:08.27 | 272385 | 291011

Range status and errors

Selected range

Filename G:\RRC’s Rip\Mark Knopfler – Sailing to Philadelphia.wav

Peak level 95.1 %
Extraction speed 7.0 X
Range quality 100.0 %
Test CRC 28BF87FA
Copy CRC 28BF87FA
Copy OK

No errors occurred

AccurateRip summary

Track 1 accurately ripped (confidence 110) [D9CD8D1D] (AR v2)
Track 2 accurately ripped (confidence 110) [8F27CFAC] (AR v2)
Track 3 accurately ripped (confidence 110) [5BE6EE05] (AR v2)
Track 4 accurately ripped (confidence 110) [EDB7D88F] (AR v2)
Track 5 accurately ripped (confidence 110) [8C72A554] (AR v2)
Track 6 accurately ripped (confidence 110) [9C71B9A8] (AR v2)
Track 7 accurately ripped (confidence 109) [255FB9E5] (AR v2)
Track 8 accurately ripped (confidence 110) [2C28E89E] (AR v2)
Track 9 accurately ripped (confidence 110) [C399C64A] (AR v2)
Track 10 accurately ripped (confidence 109) [F73238D7] (AR v2)
Track 11 accurately ripped (confidence 107) [AEBF6EB0] (AR v2)
Track 12 accurately ripped (confidence 109) [80AE08F7] (AR v2)
Track 13 accurately ripped (confidence 109) [060E6AB0] (AR v2)
Track 14 accurately ripped (confidence 105) [F68ACC94] (AR v2)

All tracks accurately ripped

End of status report

—- CUETools DB Plugin V2.1.6

[CTDB TOCID: Iw7ssZjnXs.jU8HeTa0CkNV2P8c-] found
Submit result: Iw7ssZjnXs.jU8HeTa0CkNV2P8c- has been confirmed
Track | CTDB Status
1 | (124/132) Accurately ripped
2 | (126/132) Accurately ripped
3 | (127/132) Accurately ripped
4 | (125/132) Accurately ripped
5 | (126/132) Accurately ripped
6 | (125/132) Accurately ripped
7 | (126/132) Accurately ripped
8 | (126/132) Accurately ripped
9 | (125/132) Accurately ripped
10 | (126/132) Accurately ripped
11 | (121/132) Accurately ripped
12 | (126/132) Accurately ripped
13 | (126/132) Accurately ripped
14 | (125/132) Accurately ripped

==== Log checksum BECEF6EA60BF4E674B498904EDE66CB39BAE5CAE2EEB05867DF29BDC9312ECE5 ====

REM GENRE Rock
REM DATE 2000
REM DISCID B50F280E
REM COMMENT “ExactAudioCopy v1.0b6”
PERFORMER “Mark Knopfler”
TITLE “Sailing To Philadelphia”
FILE “Mark Knopfler – Sailing To Philadelphia.flac” WAVE
TRACK 01 AUDIO
TITLE “What It Is”
PERFORMER “Mark Knopfler”
INDEX 01 00:00:00
TRACK 02 AUDIO
TITLE “Sailing To Philadelphia”
PERFORMER “Mark Knopfler”
INDEX 00 04:56:38
INDEX 01 04:58:09
TRACK 03 AUDIO
TITLE “Who’s Your Baby Now”
PERFORMER “Mark Knopfler”
INDEX 00 10:27:41
INDEX 01 10:27:57
TRACK 04 AUDIO
TITLE “Baloney Again”
PERFORMER “Mark Knopfler”
INDEX 00 13:32:05
INDEX 01 13:33:69
TRACK 05 AUDIO
TITLE “The Last Laugh”
PERFORMER “Mark Knopfler”
INDEX 00 18:42:23
INDEX 01 18:43:58
TRACK 06 AUDIO
TITLE “Do America”
PERFORMER “Mark Knopfler”
INDEX 00 22:04:53
INDEX 01 22:04:66
TRACK 07 AUDIO
TITLE “Silvertown Blues”
PERFORMER “Mark Knopfler”
INDEX 00 26:14:51
INDEX 01 26:16:35
TRACK 08 AUDIO
TITLE “El Macho”
PERFORMER “Mark Knopfler”
INDEX 01 31:47:28
TRACK 09 AUDIO
TITLE “Prairie Wedding”
PERFORMER “Mark Knopfler”
INDEX 00 37:14:47
INDEX 01 37:15:31
TRACK 10 AUDIO
TITLE “Wanderlust”
PERFORMER “Mark Knopfler”
INDEX 00 41:40:31
INDEX 01 41:42:30
TRACK 11 AUDIO
TITLE “Speedway At Nazareth”
PERFORMER “Mark Knopfler”
INDEX 00 45:34:29
INDEX 01 45:34:47
TRACK 12 AUDIO
TITLE “Junkie Doll”
PERFORMER “Mark Knopfler”
INDEX 00 51:55:29
INDEX 01 51:58:09
TRACK 13 AUDIO
TITLE “Sands Of Nevada”
PERFORMER “Mark Knopfler”
INDEX 00 56:32:71
INDEX 01 56:33:30
TRACK 14 AUDIO
TITLE “One More Matinee”
PERFORMER “Mark Knopfler”
INDEX 00 60:30:59
INDEX 01 60:31:60


Leave a Reply

Your email address will not be published. Required fields are marked *

Enter the text from the image below
 

This site uses Akismet to reduce spam. Learn how your comment data is processed.