Mark Knopfler – Sailing To Philadelphia (Promo)




No Cover available

Artist: Mark Knopfler
Year: 2000
Genre: Rock
Notes: Discogs
Add. Notes: Promo
Watch Songs on: YouTube
Cover incl.: Yes
Encoder: FLAC
Bitrate: ~800 kBit/s (44.1 kHz/16 Bit/s)
Log & Cue incl.: Yes/Yes
Size: 118,3 MB
Password: “slam” (without ” “)


All Downloads/Hosters are compatible

Download 1
KatFile.com
Turbobit.net
Rapidgator.net
FileFactory.com
Download 2
KatFile.com
Turbobit.net
Rapidgator.net
FileFactory.com

Tracklist:

1 Silvertown Blues 
2 Speedway At Nazareth 
3 Sons Of Scotland 
4 Metroland

EAC-Log, CUE-Sheed & NFO:

Click to open spoiler
Exact Audio Copy V0.99 prebeta 5 from 4. May 2009

EAC extraction logfile from 1. September 2010, 19:00

Mark Knopfler / Sailing To Philadelphia (ECD)

Used drive : MATSHITADVD-RAM UJ-852S Adapter: 2 ID: 1

Read mode : Secure
Utilize accurate stream : Yes
Defeat audio cache : Yes
Make use of C2 pointers : No

Read offset correction : 102
Overread into Lead-In and Lead-Out : No
Fill up missing offset samples with silence : Yes
Delete leading and trailing silent blocks : No
Null samples used in CRC calculations : Yes
Used interface : Native Win32 interface for Win NT & 2000

Used output format : User Defined Encoder
Selected bitrate : 768 kBit/s
Quality : High
Add ID3 tag : No
Command line compressor : C:\Program Files\Exact Audio Copy\FLAC\FLAC.EXE
Additional command line options : -6 -V -T “ARTIST=%a” -T “TITLE=%t” -T “ALBUM=%g” -T “DATE=%y” -T “TRACKNUMBER=%n” -T “GENRE=%m” -T “COMMENT=%e” %s -o %d

TOC of the extracted CD

Track | Start | Length | Start sector | End sector
———————————————————
1 | 0:00.00 | 5:31.10 | 0 | 24834
2 | 5:31.10 | 6:20.72 | 24835 | 53406
3 | 11:52.07 | 2:19.13 | 53407 | 63844
4 | 14:11.20 | 4:41.07 | 63845 | 84926
5 | 21:24.27 | 44:07.60 | 96327 | 294911

Range status and errors

Selected range

Filename C:\rips\Mark Knopfler – Sailing To Philadelphia (ECD)\Mark Knopfler – Sailing To Philadelphia (ECD).wav

Peak level 100.0 %
Range quality 99.9 %
Test CRC 9B5CC836
Copy CRC 9B5CC836
Copy OK

No errors occurred

AccurateRip summary

Track 1 accurately ripped (confidence 1) [BEFB8399]
Track 2 accurately ripped (confidence 1) [2BA3BC3E]
Track 3 accurately ripped (confidence 1) [8F4B4464]
Track 4 accurately ripped (confidence 1) [91792609]

All tracks accurately ripped

End of status report

REM GENRE Rock
REM DATE 2000
REM DISCID 380F5C05
REM COMMENT “ExactAudioCopy v0.99pb5”
PERFORMER “Mark Knopfler”
TITLE “Sailing To Philadelphia”
FILE “Mark Knopfler – Sailing To Philadelphia.flac” WAVE
TRACK 01 AUDIO
TITLE “Silvertown Blues”
PERFORMER “Mark Knopfler”
INDEX 01 00:00:00
TRACK 02 AUDIO
TITLE “Speedway At Nazareth”
PERFORMER “Mark Knopfler”
INDEX 00 05:29:10
INDEX 01 05:31:10
TRACK 03 AUDIO
TITLE “Sons Of Scotland”
PERFORMER “Mark Knopfler”
INDEX 00 11:50:07
INDEX 01 11:52:07
TRACK 04 AUDIO
TITLE “Metroland”
PERFORMER “Mark Knopfler”
INDEX 00 14:09:20
INDEX 01 14:11:20


Leave a Reply

Your email address will not be published. Required fields are marked *

Enter the text from the image below
 

This site uses Akismet to reduce spam. Learn how your comment data is processed.