Mark Knopfler – Sailing To Philadelphia (Japanese Edition)




No Cover available

Artist: Mark Knopfler
Year: 2000
Genre: Rock
Notes: Discogs
Add. Notes: Japanese Edition
Watch Songs on: YouTube
Cover incl.: Yes
Encoder: FLAC
Bitrate: ~800 kBit/s (44.1 kHz/16 Bit/s)
Log & Cue incl.: Yes/Yes
Size: 508,3 MB
Password: “slam” (without ” “)


All Downloads/Hosters are compatible

Download 1
KatFile.com
Turbobit.net
Rapidgator.net
FileFactory.com
Download 2
KatFile.com
Turbobit.net
Rapidgator.net
FileFactory.com

Tracklist:

1 What It Is 4:58
2 Sailing To Philadelphia 5:30
3 Who's Your Baby Now 3:06
4 Baloney Again 5:10
5 The Last Laugh 3:22
6 Do America 4:12
7 El Macho 5:30
8 Prairie Wedding 4:27
9 Wanderlust 3:53
10 Speedway At Nazareth 6:23
11 Junkie Doll 4:35
12 Silvertown Blues 5:29
13 Sands Of Nevada 3:57

EAC-Log, CUE-Sheed & NFO:

Click to open spoiler
Exact Audio Copy V1.3 from 2. September 2016

Отчёт EAC об извлечении, выполненном 8. октября 2019, 23:29

Mark Knopfler / Sailing To Philadelphia

Дисковод: PLEXTOR DVDR PX-755A Adapter: 1 ID: 1

Режим чтения : Достоверность
Использование точного потока : Да
Отключение кэша аудио : Да
Использование указателей C2 : Нет

Коррекция смещения при чтении : 30
Способность читать области Lead-in и Lead-out : Нет
Заполнение пропущенных сэмплов тишиной : Да
Удаление блоков с тишиной в начале и конце : Нет
При вычислениях CRC использовались нулевые сэмплы : Да
Интерфейс : Встроенный Win32-интерфейс для Win NT/2000

Выходной формат : Пользовательский кодировщик
Выбранный битрейт : 128 kBit/s
Качество : Высокий
Добавление ID3-тега : Нет
Утилита сжатия : C:\Program Files (x86)\Exact Audio Copy\Flac\flac.exe
Дополнительные параметры : -V -8 -T “Date=%year%” -T “Genre=%genre%” %source%

TOC извлечённого CD

Трек | Старт | Длительность | Начальный сектор | Конечный сектор
———————————————————————
1 | 0:00.00 | 4:57.50 | 0 | 22324
2 | 4:57.50 | 5:29.55 | 22325 | 47054
3 | 10:27.30 | 3:06.05 | 47055 | 61009
4 | 13:33.35 | 5:09.55 | 61010 | 84239
5 | 18:43.15 | 3:22.45 | 84240 | 99434
6 | 22:05.60 | 5:32.10 | 99435 | 124344
7 | 27:37.70 | 5:29.35 | 124345 | 149054
8 | 33:07.30 | 4:26.65 | 149055 | 169069
9 | 37:34.20 | 3:52.50 | 169070 | 186519
10 | 41:26.70 | 6:23.15 | 186520 | 215259
11 | 47:50.10 | 4:35.25 | 215260 | 235909
12 | 52:25.35 | 3:58.35 | 235910 | 253794
13 | 56:23.70 | 4:05.60 | 253795 | 272229

Характеристики диапазона извлечения и сообщения об ошибках

Выбранный диапазон

Имя файла D:\РАЗДАЧА\Mark Knopfler – Sailing To Philadelphia (Japan)\Mark Knopfler – Sailing To Philadelphia.wav

Пиковый уровень 95.1 %
Скорость извлечения 6.7 X
Качество диапазона 99.9 %
CRC теста 5EB7F6D3
CRC копии 5EB7F6D3
Копирование… OK

Ошибок не произошло

AccurateRip: сводка

Трек 1 : извлечено точно (доверие 5) [3566EB48] (AR v2)
Трек 2 : извлечено точно (доверие 5) [3A75EADA] (AR v2)
Трек 3 : извлечено точно (доверие 5) [8CED8CE6] (AR v2)
Трек 4 : извлечено точно (доверие 5) [3AEEFB82] (AR v2)
Трек 5 : извлечено точно (доверие 5) [08038A40] (AR v2)
Трек 6 : извлечено точно (доверие 5) [14B7D9AC] (AR v2)
Трек 7 : извлечено точно (доверие 5) [1C1926CD] (AR v2)
Трек 8 : извлечено точно (доверие 5) [6CF9D5CF] (AR v2)
Трек 9 : извлечено точно (доверие 5) [2805D12A] (AR v2)
Трек 10 : извлечено точно (доверие 4) [F905E886] (AR v2)
Трек 11 : извлечено точно (доверие 5) [BD5271CB] (AR v2)
Трек 12 : извлечено точно (доверие 4) [F922AA1E] (AR v2)
Трек 13 : извлечено точно (доверие 4) [E448C6DC] (AR v2)

Все треки извлечены точно

Конец отчёта

—- CUETools DB Plugin V2.1.6

[CTDB TOCID: 6BEgnCEjrGzsI1VX0H2mSNUVeUo-] found
Submit result: 6BEgnCEjrGzsI1VX0H2mSNUVeUo- has been confirmed
Track | CTDB Status
1 | (15/15) Accurately ripped
2 | (15/15) Accurately ripped
3 | (15/15) Accurately ripped
4 | (15/15) Accurately ripped
5 | (15/15) Accurately ripped
6 | (15/15) Accurately ripped
7 | (15/15) Accurately ripped
8 | (15/15) Accurately ripped
9 | (15/15) Accurately ripped
10 | (15/15) Accurately ripped
11 | (15/15) Accurately ripped
12 | (15/15) Accurately ripped
13 | (15/15) Accurately ripped

==== Контрольная сумма отчёта 106E661AABA6F990D0C73382800520A2F170A378E792071B075E1F5ED3B9CA87 ====

REM GENRE Rock
REM DATE 2000
REM DISCID D50E2D0D
REM COMMENT “ExactAudioCopy v1.3”
PERFORMER “Mark Knopfler”
TITLE “Sailing To Philadelphia”
FILE “Mark Knopfler – Sailing To Philadelphia.flac” WAVE
TRACK 01 AUDIO
TITLE “What It Is”
PERFORMER “Mark Knopfler”
INDEX 01 00:00:00
TRACK 02 AUDIO
TITLE “Sailing To Philadelphia”
PERFORMER “Mark Knopfler”
INDEX 00 04:55:65
INDEX 01 04:57:50
TRACK 03 AUDIO
TITLE “Who’s Your Baby Now”
PERFORMER “Mark Knopfler”
INDEX 00 10:26:20
INDEX 01 10:27:30
TRACK 04 AUDIO
TITLE “Baloney Again”
PERFORMER “Mark Knopfler”
INDEX 00 13:31:20
INDEX 01 13:33:35
TRACK 05 AUDIO
TITLE “The Last Laugh”
PERFORMER “Mark Knopfler”
INDEX 00 18:40:45
INDEX 01 18:43:15
TRACK 06 AUDIO
TITLE “Silvertown Blues”
PERFORMER “Mark Knopfler”
INDEX 00 22:03:45
INDEX 01 22:05:60
TRACK 07 AUDIO
TITLE “El Macho”
PERFORMER “Mark Knopfler”
INDEX 00 27:36:05
INDEX 01 27:37:70
TRACK 08 AUDIO
TITLE “Prairie Wedding”
PERFORMER “Mark Knopfler”
INDEX 00 33:05:40
INDEX 01 33:07:30
TRACK 09 AUDIO
TITLE “Wanderlust”
PERFORMER “Mark Knopfler”
INDEX 00 37:32:20
INDEX 01 37:34:20
TRACK 10 AUDIO
TITLE “Speedway At Nazareth”
PERFORMER “Mark Knopfler”
INDEX 01 41:26:70
TRACK 11 AUDIO
TITLE “Junkie Doll”
PERFORMER “Mark Knopfler”
INDEX 00 47:48:00
INDEX 01 47:50:10
TRACK 12 AUDIO
TITLE “Sands Of Nevada”
PERFORMER “Mark Knopfler”
INDEX 00 52:24:15
INDEX 01 52:25:35
TRACK 13 AUDIO
TITLE “One More Matinee”
PERFORMER “Mark Knopfler”
INDEX 00 56:22:40
INDEX 01 56:23:70


Leave a Reply

Your email address will not be published. Required fields are marked *

Enter the text from the image below
 

This site uses Akismet to reduce spam. Learn how your comment data is processed.