Mark Knopfler – Get Lucky (Deluxe Edition)




No Cover available

Artist: Mark Knopfler
Year: 2009
Genre: Rock
Notes: Discogs
Add. Notes: Deluxe Edition
Watch Songs on: YouTube
Cover incl.: Yes
Encoder: FLAC
Bitrate: ~800 kBit/s (44.1 kHz/16 Bit/s)
Log & Cue incl.: Yes/Yes
Size: 420,2 MB
Password: “slam” (without ” “)


All Downloads/Hosters are compatible

Download 1
KatFile.com
Turbobit.net
FileFactory.com
Rapidgator.net
Download 2
KatFile.com
Turbobit.net
FileFactory.com
Rapidgator.net

Tracklist:

CD1
1 Border Reiver 4:35
2 Hard Shoulder 4:34
3 You Can't Beat The House 3:26
4 Before Gas And TV 5:50
5 Monteleone 3:40
6 Cleaning My Gun 4:43
7 The Car Was The One 3:56
8 Remembrance Day 5:06
9 Get Lucky 4:34
10 So Far From The Clyde 5:59
11 Piper To The End 5:47

CD2
1 Pulling Down The Ride 2:41
2 Home Boy 3:15
3 Good As Gold 3:27

EAC-Log, CUE-Sheed & NFO:

Click to open spoiler
Exact Audio Copy V1.0 beta 3 from 29. August 2011

Отчёт EAC об извлечении, выполненном 30. декабря 2012, 20:15

Mark Knopfler / Get Lucky

Дисковод: SlimtypeDVD A DS8A8SH Adapter: 0 ID: 1

Режим чтения : Достоверность
Использование точного потока : Да
Отключение кэша аудио : Да
Использование указателей C2 : Нет

Коррекция смещения при чтении : 6
Способность читать области Lead-in и Lead-out : Нет
Заполнение пропущенных сэмплов тишиной : Да
Удаление блоков с тишиной в начале и конце : Нет
При вычислениях CRC использовались нулевые сэмплы : Да
Интерфейс : Встроенный Win32-интерфейс для Win NT/2000

Выходной формат : Пользовательский кодировщик
Выбранный битрейт : 768 kBit/s
Качество : Высокий
Добавление ID3-тега : Нет
Утилита сжатия : C:\Program Files (x86)\Exact Audio Copy\Flac\flac.exe
Дополнительные параметры : -V -8 -T “Date=%year%” -T “Genre=%genre%” %source%

TOC извлечённого CD

Трек | Старт | Длительность | Начальный сектор | Конечный сектор
———————————————————————
1 | 0:00.00 | 4:35.07 | 0 | 20631
2 | 4:35.07 | 4:33.65 | 20632 | 41171
3 | 9:08.72 | 3:25.72 | 41172 | 56618
4 | 12:34.69 | 5:50.08 | 56619 | 82876
5 | 18:25.02 | 3:39.55 | 82877 | 99356
6 | 22:04.57 | 4:43.17 | 99357 | 120598
7 | 26:47.74 | 3:55.67 | 120599 | 138290
8 | 30:43.66 | 5:05.63 | 138291 | 161228
9 | 35:49.54 | 4:33.60 | 161229 | 181763
10 | 40:23.39 | 5:58.73 | 181764 | 208686
11 | 46:22.37 | 5:47.03 | 208687 | 234714

Характеристики диапазона извлечения и сообщения об ошибках

Выбранный диапазон

Имя файла C:\Users\User\Music\Mark Knopfler\FLAC\2009 – Get Lucky\Mark Knopfler – Get Lucky.wav

Пиковый уровень 100.0 %
Скорость извлечения 4.5 X
Качество диапазона 100.0 %
CRC теста 520727BA
CRC копии 520727BA
Копирование… OK

Ошибок не произошло

AccurateRip: сводка

Трек 1 : извлечено точно (доверие 85) [EAE4FBBF] (AR v2)
Трек 2 : извлечено точно (доверие 82) [3F8D76DB] (AR v2)
Трек 3 : извлечено точно (доверие 83) [5EFAF728] (AR v2)
Трек 4 : извлечено точно (доверие 83) [EE98A204] (AR v2)
Трек 5 : извлечено точно (доверие 83) [B2802479] (AR v2)
Трек 6 : извлечено точно (доверие 83) [D23224BC] (AR v2)
Трек 7 : извлечено точно (доверие 83) [2839A40A] (AR v2)
Трек 8 : извлечено точно (доверие 82) [7E165DD3] (AR v2)
Трек 9 : извлечено точно (доверие 83) [C22F27E3] (AR v2)
Трек 10 : извлечено точно (доверие 83) [46A38A3B] (AR v2)
Трек 11 : извлечено точно (доверие 82) [01A656F3] (AR v2)

Все треки извлечены точно

Конец отчёта

==== Контрольная сумма отчёта B4BF564D4BF77D565B37E8FBB1FFE573DEC39B8103C67BF1206653FA8FE20DD7 ====

Exact Audio Copy V1.0 beta 3 from 29. August 2011

Отчёт EAC об извлечении, выполненном 30. декабря 2012, 20:31

Mark Knopfler / Get Lucky Bonus

Дисковод: SlimtypeDVD A DS8A8SH Adapter: 0 ID: 1

Режим чтения : Достоверность
Использование точного потока : Да
Отключение кэша аудио : Да
Использование указателей C2 : Нет

Коррекция смещения при чтении : 6
Способность читать области Lead-in и Lead-out : Нет
Заполнение пропущенных сэмплов тишиной : Да
Удаление блоков с тишиной в начале и конце : Нет
При вычислениях CRC использовались нулевые сэмплы : Да
Интерфейс : Встроенный Win32-интерфейс для Win NT/2000

Выходной формат : Пользовательский кодировщик
Выбранный битрейт : 768 kBit/s
Качество : Высокий
Добавление ID3-тега : Нет
Утилита сжатия : C:\Program Files (x86)\Exact Audio Copy\Flac\flac.exe
Дополнительные параметры : -V -8 -T “Date=%year%” -T “Genre=%genre%” %source%

TOC извлечённого CD

Трек | Старт | Длительность | Начальный сектор | Конечный сектор
———————————————————————
1 | 0:00.00 | 2:40.72 | 0 | 12071
2 | 2:40.72 | 3:15.20 | 12072 | 26716
3 | 5:56.17 | 3:27.19 | 26717 | 42260

Характеристики диапазона извлечения и сообщения об ошибках

Выбранный диапазон

Имя файла C:\Users\User\Music\Mark Knopfler\FLAC\2009 – Get Lucky (Bonus CD)\Mark Knopfler – Get Lucky (Bonus CD).wav

Пиковый уровень 99.9 %
Скорость извлечения 3.3 X
Качество диапазона 100.0 %
CRC теста F5B8F195
CRC копии F5B8F195
Копирование… OK

Ошибок не произошло

AccurateRip: сводка

Трек 1 : извлечено точно (доверие 2) [D5AD1A72] (AR v2)
Трек 2 : извлечено точно (доверие 2) [E05071BE] (AR v2)
Трек 3 : извлечено точно (доверие 2) [C61AD819] (AR v2)

Все треки извлечены точно

Конец отчёта

==== Контрольная сумма отчёта 9F97C335F2CD21C5DF0F8D3A5034A0F0200A38C7685A2727811A9D0FC3E4C5F0 ====

REM GENRE Rock
REM DATE 2009
REM DISCID 900C390B
REM COMMENT “ExactAudioCopy v1.0b3”
CATALOG 0602527086743
PERFORMER “Mark Knopfler”
TITLE “Get Lucky”
FILE “Mark Knopfler – Get Lucky.flac” WAVE
TRACK 01 AUDIO
TITLE “Border Reiver”
PERFORMER “Mark Knopfler”
ISRC GBUM70907551
INDEX 01 00:00:00
TRACK 02 AUDIO
TITLE “Hard Shoulder”
PERFORMER “Mark Knopfler”
ISRC GBUM70907552
INDEX 01 04:35:07
TRACK 03 AUDIO
TITLE “You Can’t Beat The House”
PERFORMER “Mark Knopfler”
ISRC GBUM70907553
INDEX 01 09:08:72
TRACK 04 AUDIO
TITLE “Before Gas And TV”
PERFORMER “Mark Knopfler”
ISRC GBUM70907554
INDEX 00 12:34:42
INDEX 01 12:34:69
TRACK 05 AUDIO
TITLE “Monteleone”
PERFORMER “Mark Knopfler”
ISRC GBUM70909297
INDEX 01 18:25:02
TRACK 06 AUDIO
TITLE “Cleaning My Gun”
PERFORMER “Mark Knopfler”
ISRC GBUM70909298
INDEX 00 22:03:28
INDEX 01 22:04:57
TRACK 07 AUDIO
TITLE “The Car Was The One”
PERFORMER “Mark Knopfler”
ISRC GBUM70909300
INDEX 01 26:47:74
TRACK 08 AUDIO
TITLE “Remembrance Day”
PERFORMER “Mark Knopfler”
ISRC GBUM70909302
INDEX 01 30:43:66
TRACK 09 AUDIO
TITLE “Get Lucky”
PERFORMER “Mark Knopfler”
ISRC GBUM70909303
INDEX 01 35:49:54
TRACK 10 AUDIO
TITLE “So Far From The Clyde”
PERFORMER “Mark Knopfler”
ISRC GBUM70909304
INDEX 01 40:23:39
TRACK 11 AUDIO
TITLE “Piper To The End”
PERFORMER “Mark Knopfler”
ISRC GBUM70909305
INDEX 01 46:22:37

REM GENRE Rock
REM DATE 2009
REM DISCID 1B023303
REM COMMENT “ExactAudioCopy v1.0b3”
CATALOG 0602527127378
PERFORMER “Mark Knopfler”
TITLE “Get Lucky (Bonus)”
FILE “Mark Knopfler – Get Lucky (Bonus).flac” WAVE
TRACK 01 AUDIO
TITLE “Pulling Down The Ride”
PERFORMER “Mark Knopfler”
ISRC GBUM70907526
INDEX 01 00:00:00
TRACK 02 AUDIO
TITLE “Home Boy”
PERFORMER “Mark Knopfler”
ISRC GBUM70907524
INDEX 01 02:40:72
TRACK 03 AUDIO
TITLE “Good As Gold”
PERFORMER “Mark Knopfler”
ISRC GBUM70907529
INDEX 01 05:56:17


Leave a Reply

Your email address will not be published. Required fields are marked *

This site uses Akismet to reduce spam. Learn how your comment data is processed.