Mark Knopfler – Down The Road Wherever




No Cover available

Artist: Mark Knopfler
Year: 2018
Genre: Rock
Notes: Discogs
Add. Notes:
Watch Songs on: YouTube
Cover incl.: Yes
Encoder: FLAC
Bitrate: ~800 kBit/s (44.1 kHz/16 Bit/s)
Log & Cue incl.: Yes/Yes
Size: 621,2 MB
Password: “slam” (without ” “)


All Downloads/Hosters are compatible

Download 1
KatFile.com
Turbobit.net
FileFactory.com
Rapidgator.net
Download 2
KatFile.com
Turbobit.net
FileFactory.com
Rapidgator.net

Tracklist:

1 Trapper Man 6:02
2 Back On The Dance Floor 5:31
3 Nobody's Child 4:17
4 Just A Boy Away From Home 5:12
5 When You Leave 4:13
6 Good On You Son 5:38
7 My Bacon Roll 5:36
8 Nobody Does That 5:15
9 Drover's Road 5:05
10 One Song At A Time 6:17
11 Floating Away 5:03
12 Slow Learner 4:34
13 Heavy Up 6:00
14 Matchstick Man 2:54

EAC-Log, CUE-Sheed & NFO:

Click to open spoiler
X Lossless Decoder version 20181019 (151.1)

XLD extraction logfile from 2018-12-29 12:02:24 +0500

Mark Knopfler / Down The Road Wherever

Used drive : ASUS SDRW-08U9M-U (revision B101)
Media type : Pressed CD

Ripper mode : XLD Secure Ripper
Disable audio cache : OK for the drive with a cache less than 1375KiB
Make use of C2 pointers : NO
Read offset correction : 6
Max retry count : 20
Gap status : Analyzed, Appended

TOC of the extracted CD
Track | Start | Length | Start sector | End sector
———————————————————
1 | 00:00:00 | 06:01:54 | 0 | 27128
2 | 06:01:54 | 05:30:56 | 27129 | 51934
3 | 11:32:35 | 04:16:60 | 51935 | 71194
4 | 15:49:20 | 05:12:32 | 71195 | 94626
5 | 21:01:52 | 04:12:47 | 94627 | 113573
6 | 25:14:24 | 05:37:71 | 113574 | 138919
7 | 30:52:20 | 05:35:47 | 138920 | 164091
8 | 36:27:67 | 05:15:25 | 164092 | 187741
9 | 41:43:17 | 05:05:13 | 187742 | 210629
10 | 46:48:30 | 06:17:34 | 210630 | 238938
11 | 53:05:64 | 05:03:00 | 238939 | 261663
12 | 58:08:64 | 04:34:17 | 261664 | 282230
13 | 62:43:06 | 06:00:10 | 282231 | 309240
14 | 68:43:16 | 02:54:14 | 309241 | 322304

AccurateRip Summary
Disc not found in AccurateRip DB.

All Tracks
Filename : /Users/mihail/Music/CDs/Mark Knopfler – Down The Road Wherever.flac
Album gain : -3.46 dB
Peak : 0.985748
CRC32 hash (test run) : 910758D2
CRC32 hash : 910758D2
CRC32 hash (skip zero) : 438C1CB0
Statistics
Read error : 0
Jitter error (maybe fixed) : 0
Retry sector count : 0
Damaged sector count : 0

Track 01
Pre-gap length : 00:02:00

Track gain : -4.60 dB
Peak : 0.854218
CRC32 hash (test run) : 079F8961
CRC32 hash : 079F8961
CRC32 hash (skip zero) : E033F59F
AccurateRip v1 signature : 1ADF89C0
AccurateRip v2 signature : 7C784534
->Track not present in AccurateRip database.
Statistics
Read error : 0
Jitter error (maybe fixed) : 0
Retry sector count : 0
Damaged sector count : 0

Track 02

Track gain : -4.03 dB
Peak : 0.869202
CRC32 hash (test run) : BA432CBC
CRC32 hash : BA432CBC
CRC32 hash (skip zero) : EF3F4C42
AccurateRip v1 signature : 32C06F02
AccurateRip v2 signature : 0DA9DD25
->Track not present in AccurateRip database.
Statistics
Read error : 0
Jitter error (maybe fixed) : 0
Retry sector count : 0
Damaged sector count : 0

Track 03

Track gain : -2.85 dB
Peak : 0.749817
CRC32 hash (test run) : BE694E25
CRC32 hash : BE694E25
CRC32 hash (skip zero) : 2355A0FD
AccurateRip v1 signature : 4D459E4E
AccurateRip v2 signature : 8D95308F
->Track not present in AccurateRip database.
Statistics
Read error : 0
Jitter error (maybe fixed) : 0
Retry sector count : 0
Damaged sector count : 0

Track 04

Track gain : -4.50 dB
Peak : 0.926422
CRC32 hash (test run) : 11AFC497
CRC32 hash : 11AFC497
CRC32 hash (skip zero) : 4D4AE533
AccurateRip v1 signature : A24F0EDF
AccurateRip v2 signature : 6E88F6A9
->Track not present in AccurateRip database.
Statistics
Read error : 0
Jitter error (maybe fixed) : 0
Retry sector count : 0
Damaged sector count : 0

Track 05
Pre-gap length : 00:01:17

Track gain : -0.80 dB
Peak : 0.848785
CRC32 hash (test run) : CB7B0C4C
CRC32 hash : CB7B0C4C
CRC32 hash (skip zero) : 0C228CF1
AccurateRip v1 signature : 3A96A904
AccurateRip v2 signature : 57AA6E5D
->Track not present in AccurateRip database.
Statistics
Read error : 0
Jitter error (maybe fixed) : 0
Retry sector count : 0
Damaged sector count : 0

Track 06

Track gain : -4.27 dB
Peak : 0.911499
CRC32 hash (test run) : BFD80B98
CRC32 hash : BFD80B98
CRC32 hash (skip zero) : 11CEC178
AccurateRip v1 signature : 97F47C15
AccurateRip v2 signature : 9DA32570
->Track not present in AccurateRip database.
Statistics
Read error : 0
Jitter error (maybe fixed) : 0
Retry sector count : 0
Damaged sector count : 0

Track 07

Track gain : -3.47 dB
Peak : 0.886932
CRC32 hash (test run) : 6A5C1969
CRC32 hash : 6A5C1969
CRC32 hash (skip zero) : 74108EC9
AccurateRip v1 signature : E64D678C
AccurateRip v2 signature : E11D5E09
->Track not present in AccurateRip database.
Statistics
Read error : 0
Jitter error (maybe fixed) : 0
Retry sector count : 0
Damaged sector count : 0

Track 08

Track gain : -3.21 dB
Peak : 0.916443
CRC32 hash (test run) : 5E578E72
CRC32 hash : 5E578E72
CRC32 hash (skip zero) : E162FE6E
AccurateRip v1 signature : A6012A72
AccurateRip v2 signature : E0EA6625
->Track not present in AccurateRip database.
Statistics
Read error : 0
Jitter error (maybe fixed) : 0
Retry sector count : 0
Damaged sector count : 0

Track 09

Track gain : -3.80 dB
Peak : 0.854950
CRC32 hash (test run) : 34CEB168
CRC32 hash : 34CEB168
CRC32 hash (skip zero) : BA63873E
AccurateRip v1 signature : 9E619F21
AccurateRip v2 signature : B939DE4C
->Track not present in AccurateRip database.
Statistics
Read error : 0
Jitter error (maybe fixed) : 0
Retry sector count : 0
Damaged sector count : 0

Track 10

Track gain : -3.84 dB
Peak : 0.985748
CRC32 hash (test run) : C84E8736
CRC32 hash : C84E8736
CRC32 hash (skip zero) : 43545DA4
AccurateRip v1 signature : C5D78D1A
AccurateRip v2 signature : 1E5582F4
->Track not present in AccurateRip database.
Statistics
Read error : 0
Jitter error (maybe fixed) : 0
Retry sector count : 0
Damaged sector count : 0

Track 11
Pre-gap length : 00:00:70

Track gain : -2.19 dB
Peak : 0.893280
CRC32 hash (test run) : 87548A71
CRC32 hash : 87548A71
CRC32 hash (skip zero) : CE9FA3B1
AccurateRip v1 signature : 690E7777
AccurateRip v2 signature : 257AA267
->Track not present in AccurateRip database.
Statistics
Read error : 0
Jitter error (maybe fixed) : 0
Retry sector count : 0
Damaged sector count : 0

Track 12

Track gain : -2.82 dB
Peak : 0.813599
CRC32 hash (test run) : F877CB98
CRC32 hash : F877CB98
CRC32 hash (skip zero) : A8C3C686
AccurateRip v1 signature : E47C51EA
AccurateRip v2 signature : ACAA17A9
->Track not present in AccurateRip database.
Statistics
Read error : 0
Jitter error (maybe fixed) : 0
Retry sector count : 0
Damaged sector count : 0

Track 13
Pre-gap length : 00:03:07

Track gain : -2.96 dB
Peak : 0.943970
CRC32 hash (test run) : 930EBC85
CRC32 hash : 930EBC85
CRC32 hash (skip zero) : E9E2370B
AccurateRip v1 signature : A6D46911
AccurateRip v2 signature : B52524B0
->Track not present in AccurateRip database.
Statistics
Read error : 0
Jitter error (maybe fixed) : 0
Retry sector count : 0
Damaged sector count : 0

Track 14

Track gain : -0.21 dB
Peak : 0.632355
CRC32 hash (test run) : BAC9DF6D
CRC32 hash : BAC9DF6D
CRC32 hash (skip zero) : C1698A7D
AccurateRip v1 signature : 67BB9414
AccurateRip v2 signature : 49932009
->Track not present in AccurateRip database.
Statistics
Read error : 0
Jitter error (maybe fixed) : 0
Retry sector count : 0
Damaged sector count : 0

No errors occurred

End of status report

—–BEGIN XLD SIGNATURE—–
yugzA6nWYXqVNjcwuv4C4C7H.0E5dba_SM.CDepZL2tb64v1SLly_SPhRKhA1XDvveN9TXPJ3Svyu73ximcp2J13iKhbEq2p2rdXVsu
—–END XLD SIGNATURE—–

TITLE “Down The Road Wherever”
PERFORMER “Mark Knopfler”
REM GENRE “Rock”
REM DATE “2018”
REM DISCID CA10C90E
REM REPLAYGAIN_ALBUM_GAIN -3.46 dB
REM REPLAYGAIN_ALBUM_PEAK 0.985748
FILE “Mark Knopfler – Down The Road Wherever.flac” WAVE
TRACK 01 AUDIO
TITLE “Trapper Man”
PERFORMER “Mark Knopfler”
ISRC GBUM71803997
REM REPLAYGAIN_TRACK_GAIN -4.60 dB
REM REPLAYGAIN_TRACK_PEAK 0.854218
INDEX 01 00:00:00
TRACK 02 AUDIO
TITLE “Back On The Dance Floor”
PERFORMER “Mark Knopfler”
ISRC GBUM71803998
REM REPLAYGAIN_TRACK_GAIN -4.03 dB
REM REPLAYGAIN_TRACK_PEAK 0.869202
INDEX 01 06:01:54
TRACK 03 AUDIO
TITLE “Nobody’s Child”
PERFORMER “Mark Knopfler”
ISRC GBUM71803999
REM REPLAYGAIN_TRACK_GAIN -2.85 dB
REM REPLAYGAIN_TRACK_PEAK 0.749817
INDEX 01 11:32:35
TRACK 04 AUDIO
TITLE “Just A Boy Away From Home”
PERFORMER “Mark Knopfler”
ISRC GBUM71804000
REM REPLAYGAIN_TRACK_GAIN -4.50 dB
REM REPLAYGAIN_TRACK_PEAK 0.926422
INDEX 01 15:49:20
TRACK 05 AUDIO
TITLE “When You Leave”
PERFORMER “Mark Knopfler”
ISRC GBUM71804001
REM REPLAYGAIN_TRACK_GAIN -0.80 dB
REM REPLAYGAIN_TRACK_PEAK 0.848785
INDEX 00 21:00:35
INDEX 01 21:01:52
TRACK 06 AUDIO
TITLE “Good On You Son”
PERFORMER “Mark Knopfler”
ISRC GBUM71804002
REM REPLAYGAIN_TRACK_GAIN -4.27 dB
REM REPLAYGAIN_TRACK_PEAK 0.911499
INDEX 01 25:14:24
TRACK 07 AUDIO
TITLE “My Bacon Roll”
PERFORMER “Mark Knopfler”
ISRC GBUM71804003
REM REPLAYGAIN_TRACK_GAIN -3.47 dB
REM REPLAYGAIN_TRACK_PEAK 0.886932
INDEX 01 30:52:20
TRACK 08 AUDIO
TITLE “Nobody Does That”
PERFORMER “Mark Knopfler”
ISRC GBUM71804004
REM REPLAYGAIN_TRACK_GAIN -3.21 dB
REM REPLAYGAIN_TRACK_PEAK 0.916443
INDEX 01 36:27:67
TRACK 09 AUDIO
TITLE “Drovers’ Road”
PERFORMER “Mark Knopfler”
ISRC GBUM71804005
REM REPLAYGAIN_TRACK_GAIN -3.80 dB
REM REPLAYGAIN_TRACK_PEAK 0.854950
INDEX 01 41:43:17
TRACK 10 AUDIO
TITLE “One Song At A Time”
PERFORMER “Mark Knopfler”
ISRC GBUM71804006
REM REPLAYGAIN_TRACK_GAIN -3.84 dB
REM REPLAYGAIN_TRACK_PEAK 0.985748
INDEX 01 46:48:30
TRACK 11 AUDIO
TITLE “Floating Away”
PERFORMER “Mark Knopfler”
ISRC GBUM71804007
REM REPLAYGAIN_TRACK_GAIN -2.19 dB
REM REPLAYGAIN_TRACK_PEAK 0.893280
INDEX 00 53:04:69
INDEX 01 53:05:64
TRACK 12 AUDIO
TITLE “Slow Learner”
PERFORMER “Mark Knopfler”
ISRC GBUM71804008
REM REPLAYGAIN_TRACK_GAIN -2.82 dB
REM REPLAYGAIN_TRACK_PEAK 0.813599
INDEX 01 58:08:64
TRACK 13 AUDIO
TITLE “Heavy Up”
PERFORMER “Mark Knopfler”
ISRC GBUM71804009
REM REPLAYGAIN_TRACK_GAIN -2.96 dB
REM REPLAYGAIN_TRACK_PEAK 0.943970
INDEX 00 62:39:74
INDEX 01 62:43:06
TRACK 14 AUDIO
TITLE “Matchstick Man”
PERFORMER “Mark Knopfler”
ISRC GBUM71804010
REM REPLAYGAIN_TRACK_GAIN -0.21 dB
REM REPLAYGAIN_TRACK_PEAK 0.632355
INDEX 01 68:43:16


Leave a Reply

Your email address will not be published. Required fields are marked *

Enter the text from the image below
 

This site uses Akismet to reduce spam. Learn how your comment data is processed.